logo
Международный русскоязычный
торрент-трекер
Menu
Doublon
Поделиться с друзьями: 
Голосуй за Корсар и получи 500 дублонов
Рейтинг торрент трекеров - UpTracker.ru

Звёздные Врата: ЗВ-1 / Stargate: SG-1 / Сезон: 5 / Серии: 1-22 (22) (2001, Фантастика, DVDRip-AVC)

Непрочитанное сообщение Korsar » 01 дек 2016, 02:39

Звёздные Врата: ЗВ-1 / Stargate: SG-1

Год выпуска • 2001
Страна • США
Жанр • Фантастика
Озвучание• Профессиональный (многоголосый, закадровый) « AXN Sci-Fi »
Режиссёр • Мартин Вуд
В ролях • Ричард Дин Андерсон, Майкл Шенкс, Аманда Таппинг, Кристофер Джадж, Дон Дэвис и др.

Описание • «Звёздные врата SG-1» (англ. Stargate SG-1) - научно-фантастический телевизионный сериал, созданный Брэдом Райтом и Джонатаном Гласснером по мотивам фильма 1994 года «Звёздные врата» Дина Девлина и Роланда Эммериха. Действие сериала начинается спустя год после событий художественного фильма. Сеть устройств, созданных инопланетной расой древних и называемых звёздными вратами, связывает между собой несколько галактик и позволяет мгновенно перемещаться между различными мирами. Сериал охватывает большую часть мифологии (египетская, норвежская, легенды о короле Артуре) древних народов Земли.

Продолжительность: ~ 44 Мин.
Качество: DVDrip-AVC
Формат: MKV
Видео: AVC / 1294 kbps / 720@853:480p / 23.976 fps / 16:9 / 0.156 bit/pixel
Аудио:
Русский / Dolby Digital 2.0 / 48 kHz / 256 kbps
English / Dolby Digital 5.1 / 48 kHz / 448 kbps
English / Dolby Digital 2.0 / 48 kHz / 192 kbps (Commentary)
Субтитры:
Русский / English



Общее
Уникальный идентификатор : 192410923622687839257634558030310484165 (0x90C0FEF6226CBFEA91E6C049CACB28C5)
Полное имя : G:\Мои Документы\Видео\ЗВ\Stargate SG-1 S05 DVDrip-AVC (AXN Sci-Fi) + Sub\Stargate SG-1 S05E01 DVDrip-AVC (AXN Sci-Fi) + Sub.mkv
Формат : Matroska
Версия формата : Version 2
Размер файла : 680 Мбайт
Продолжительность : 44 м.
Общий поток : 2151 Кбит/сек
Дата кодирования : UTC 2015-03-06 15:13:37
Программа кодирования : mkvmerge v4.0.0 ('The Stars were mine') сборка от Jun 6 2010 16:18:42
Библиотека кодирования : libebml v1.0.0 + libmatroska v1.0.0
Видео
Идентификатор : 1
Формат : AVC
Формат/Информация : Advanced Video Codec
Профиль формата : High@L3.1
Параметр CABAC формата : Да
Параметр ReFrames формата : 9 кадров
Идентификатор кодека : V_MPEG4/ISO/AVC
Продолжительность : 44 м.
Битрейт : 1253 Кбит/сек
Ширина : 720 пикселей
Высота : 480 пикселей
Соотношение сторон : 16:9
Режим частоты кадров : Переменный
Частота кадров : 23,976 кадра/сек
Стандарт вещания : NTSC
Цветовое пространство : YUV
Субдискретизация насыщенности : 4:2:0
Битовая глубина : 8 бит
Тип развёртки : Прогрессивная
Бит/(Пиксели*Кадры) : 0.151
Размер потока : 383 Мбайт (56%)
Библиотека кодирования : x264 core 88
Настройки программы : cabac=1 / ref=9 / deblock=1:0:0 / analyse=0x3:0x133 / me=umh / subme=9 / psy=1 / psy_rd=1.00:0.00 / mixed_ref=0 / me_range=64 / chroma_me=1 / trellis=2 / 8x8dct=1 / cqm=0 / deadzone=21,11 / fast_pskip=0 / chroma_qp_offset=-2 / threads=12 / sliced_threads=0 / nr=0 / decimate=1 / mbaff=0 / constrained_intra=0 / bframes=8 / b_pyramid=2 / b_adapt=2 / b_bias=0 / direct=3 / wpredb=1 / wpredp=2 / keyint=240 / keyint_min=24 / scenecut=40 / intra_refresh=0 / rc_lookahead=40 / rc=2pass / mbtree=1 / bitrate=1253 / ratetol=1.0 / qcomp=0.60 / qpmin=10 / qpmax=51 / qpstep=4 / cplxblur=20.0 / qblur=0.5 / ip_ratio=1.40 / aq=1:1.00
Язык : English
Default : Да
Forced : Нет
Основные цвета : BT.601-6 525, BT.1358 525, BT.1700 NTSC, SMPTE 170M
Характеристики трансфера : BT.709-5, BT.1361
Коэффициенты матрицы : BT.601-6 525, BT.1358 525, BT.1700 NTSC, SMPTE 170M

Аудио #1
Идентификатор : 2
Формат : AC-3
Формат/Информация : Audio Coding 3
Расширение режима : CM (complete main)
Параметр Endianness формата : Big
Идентификатор кодека : A_AC3
Продолжительность : 44 м.
Вид битрейта : Постоянный
Битрейт : 256 Кбит/сек
Каналы : 2 канала
Расположение каналов : Front: L R
Частота : 48,0 КГц
Битовая глубина : 16 бит
Метод сжатия : С потерями
Размер потока : 81,0 Мбайт (12%)
Язык : Russian
Default : Да
Forced : Нет

Аудио #2
Идентификатор : 3
Формат : AC-3
Формат/Информация : Audio Coding 3
Расширение режима : CM (complete main)
Параметр Endianness формата : Big
Идентификатор кодека : A_AC3
Продолжительность : 44 м.
Вид битрейта : Постоянный
Битрейт : 448 Кбит/сек
Каналы : 6 каналов
Расположение каналов : Front: L C R, Side: L R, LFE
Частота : 48,0 КГц
Битовая глубина : 16 бит
Метод сжатия : С потерями
Размер потока : 142 Мбайт (21%)
Заголовок : English
Язык : English
Default : Нет
Forced : Нет

Аудио #3
Идентификатор : 4
Формат : AC-3
Формат/Информация : Audio Coding 3
Профиль формата : Dolby Digital
Расширение режима : CM (complete main)
Параметр Endianness формата : Big
Идентификатор кодека : A_AC3
Продолжительность : 44 м.
Вид битрейта : Постоянный
Битрейт : 192 Кбит/сек
Каналы : 2 канала
Расположение каналов : Front: L R
Частота : 48,0 КГц
Битовая глубина : 16 бит
Метод сжатия : С потерями
Размер потока : 60,7 Мбайт (9%)
Заголовок : Director's Commentary
Язык : English
Default : Нет
Forced : Нет

Текст #1
Идентификатор : 5
Формат : UTF-8
Идентификатор кодека : S_TEXT/UTF8
Идентификатор кодека/Информация : UTF-8 Plain Text
Язык : Russian
Default : Нет
Forced : Нет

Текст #2
Идентификатор : 6
Формат : UTF-8
Идентификатор кодека : S_TEXT/UTF8
Идентификатор кодека/Информация : UTF-8 Plain Text
Заголовок : English
Язык : English
Default : Нет
Forced : Нет

Меню
00:00:00.000 : en:Chapter 1
00:08:22.418 : en:Chapter 2
00:17:14.783 : en:Chapter 3
00:25:52.467 : en:Chapter 4
00:33:42.103 : en:Chapter 5

Автор: GATER_media
КУБКИ

СТАЖ

МЕДАЛИ
Награды:9

Лучший по количеству кубков (1) За отличные раздачи и качество (2) За отличные комментарии (2) Почётный форумчанин (2) Верный Сид (2)

Аватара пользователя
СССР
Korsar
Заслуженный Корсар-Вип+
  • Торрент
Для скачивания торрента необходимо зарегистрироваться или войти на трекер.

Непрочитанное сообщение kwazar312 » 14 янв 2019, 13:31

Пятый сезон американского научно-фантастического телевизионного сериала «Звёздные врата: SG-1» стартовал 29 июня 2001 года. Пятый сезон, состоящий из 22 эпизодов, заканчивается 17 мая 2002 года.
Уважаемый Korsar,большое спасибо за раздачу данного сериала.
КУБКИ

СТАЖ

МЕДАЛИ
Награды:128

За помощь проекту (12) Лучший по количеству кубков (39) За отличные раздачи и качество (2) За отличные комментарии (22) Почётный форумчанин (3) Верный Сид (44) За участие в конкурсах/играх (6)

Аватара пользователя
kwazar312
Заслуженный Корсар-Вип


Вернуться в Зарубежные сериалы



Uptime по данным Ping-Admin.Ru - сервиса мониторинга доступности сайтов
Рейтинг@Mail.ru