logo
Международный русскоязычный
торрент-трекер
Menu

Doublon
Поделиться с друзьями: 
Голосуй за Корсар и получи 150 дублонов
Рейтинг торрент трекеров - UpTracker.ru

Звёздные Врата: Атлантида / Stargate: Atlantis / Сезон: 4 / Серии: 1-20 из 20 (2007, Фантастика, приключения, BDRip 1080p)

Сообщение Korsar » 01 дек 2016, 01:08

Звёздные Врата: Атлантида / Stargate: Atlantis

Год выпуска: 2007
Страна: США, Канада
Жанр: Фантастика, приключения
Продолжительность: 00:43:34

Перевод: Профессиональный (многоголосый закадровый) студия "Инис" для телеканала ТВ-3

Режиссёр: Martin Wood, Robert C. Cooper, Andy Mikita, Paul Ziller, William Waring, Brad Turner

В ролях: Joe Flanigan (Джон Шеппард), Torri Higginson (Элизабет Вейр), Amanda Tapping (Саманта Картер), Rachel Luttrell (Тейла Эммаган), Jason Momoa (Ронон Декс), Paul McGillion (Карсон Беккет), David Hewlett (Родни МакКей), David Nykl (Радек Зеленка), Robert Picardo (Ричард Вулси), Mitch Pileggi (Стивен Колдвелл), Connor Trinneer (Майкл)

Описание: Члены экспедиции отчаянно пытаются сохранить остатки энергии в разряжённом МНТ Атлантиды и вернуть город в гиперпространство. Тем временем, их разыскивает полковник Саманта Картер на крейсере «Аполлон». В то же время, Родни Маккей решает активировать в теле Элизабет Вейр (которая находится на грани смерти) асуранских нанороботов, чем спасает ей жизнь. Затем он составляет дерзкий план по краже асуранского МНТ, в котором центральной фигурой была Вейр. В результате операции экспедиция сумела добыть новый МНТ, однако Вейр попала в плен к асуранам. Картер становится новым командующим экспедицией, хотя многие ещё надеются спасти Вейр.

Качество: BDRip 1080p
Контейнер: MKV

Видео: MPEG-4 AVC / 12400 kbps / 1920:1080p / 23.976 fps / 16:9 / 1.78:1
Аудио: AC3, 48 kHz 6 ch, 448 kbps CBR Инис ТВ-3
Субтитры: Нет
01. «Дрейф (вторая часть)» / Adrift
02. «Единственная надежда (третья часть)» / Lifeline
03. «Воссоединение» / Reunion
04. «Призрак-двойник» / Doppelganger
05. «Кочевники» / Travelers
06. «С чистого листа» / Tabula Rasa
07. «Пропавшие» / Missing
08. «Провидец» / The Seer
09. «Перекресток Миллер» / Miller's Crossing
10. «Суета земная (первая часть)» / This Mortal Coil
11. «Помяни мои грехи (вторая часть)» / Be All My Sins Remember'd
12. «Боевые трофеи (третья часть)» / Spoils of War
13. «Карантин» / Quarantine
14. «Хармони» / Harmony
15. «Изгой» / Outcast
16. «Трио» / Trio
17. «Мидуэй» / Midway
18. «Кровные узы. Часть 1» / The Kindred. Part 1
19. «Кровные узы. Часть 2» / The Kindred. Part 2
20. «Последний (первая часть)» / The Last Man

Полное имя : ..........\Stargate.Atlantis S04\Stargate.Atlantis.s04e01.BDRip.1080p.mkv
Формат : Matroska
Версия формата : Version 4 / Version 2
Размер файла : 3,99 Гбайт
Продолжительность : 43 м.
Режим общего битрейта : Переменный
Общий поток : 13,1 Мбит/сек
Дата кодирования : UTC 2015-09-19 16:41:45
Программа кодирования : mkvmerge v8.3.0 ('Over the Horizon') 64bit
Библиотека кодирования : libebml v1.3.1 + libmatroska v1.4.2
DURATION : 00:43:32.864000000
NUMBER_OF_FRAMES : 81652
NUMBER_OF_BYTES : 146320384
_STATISTICS_WRITING_APP : mkvmerge v8.3.0 ('Over the Horizon') 64bit
_STATISTICS_WRITING_DATE_UTC : 2015-09-19 16:41:45
_STATISTICS_TAGS : BPS DURATION NUMBER_OF_FRAMES NUMBER_OF_BYTES

Видео
Идентификатор : 1
Формат : AVC
Формат/Информация : Advanced Video Codec
Профиль формата : Baseline@L4
Параметр CABAC формата : Нет
Параметр ReFrames формата : 1 кадр
Параметр GOP формата : M=1, N=12
Идентификатор кодека : V_MPEG4/ISO/AVC
Продолжительность : 43 м.
Вид битрейта : Переменный
Битрейт : 12,4 Мбит/сек
Максимальный битрейт : 19,0 Мбит/сек
Ширина : 1920 пикселей
Высота : 1080 пикселей
Соотношение сторон : 16:9
Режим частоты кадров : Постоянный
Частота кадров : 23,976 кадра/сек
Частота кадров в оригинале : 24,000 кадра/сек
Цветовое пространство : YUV
Субдискретизация насыщенности : 4:2:0
Битовая глубина : 8 бит
Тип развёртки : Прогрессивная
Бит/(Пиксели*Кадры) : 0.250
Размер потока : 3,77 Гбайт (95%)
Default : Да
Forced : Нет

Аудио
Идентификатор : 2
Формат : AC-3
Формат/Информация : Audio Coding 3
Расширение режима : CM (complete main)
Параметр Endianness формата : Big
Идентификатор кодека : A_AC3
Продолжительность : 43 м.
Вид битрейта : Постоянный
Битрейт : 448 Кбит/сек
Каналы : 6 каналов
Расположение каналов : Front: L C R, Side: L R, LFE
Частота : 48,0 КГц
Метод сжатия : С потерями
Размер потока : 140 Мбайт (3%)
Заголовок : ТВ-3
Язык : Russian
Default : Да
Forced : Нет

За предоставленные blu ray диски спасибо уважаемому Kanopus12

Автор: belshaman

Боцман
Аватара пользователя
Korsar
Заслуженный Корсар-Вип+
 
 

Награды: 32
За помощь проекту (2) Лучший по количеству кубков (2) За отличные раздачи и качество (13) За подробное оформление раздач (1) За отличные комментарии (1) Верный Сид (11) За участие в конкурсах/играх (2)
  • Торрент
Для скачивания торрента необходимо зарегистрироваться или войти на трекер.

Вернуться в Зарубежные сериалы (HD Video)



Uptime по данным Ping-Admin.Ru - сервиса мониторинга доступности сайтов
Рейтинг@Mail.ru