logo
Международный русскоязычный
торрент-трекер
Menu

Doublon
Поделиться с друзьями: 
Голосуй за Корсар и получи 100 дублонов
Рейтинг торрент трекеров - UpTracker.ru

Звёздные Врата: Атлантида / Stargate: Atlantis / Сезон: 1 / Серии: 1-20 из 20 (2004, Фантастика, приключения, BDRip 1080p)

Сообщение Korsar » 01 дек 2016, 01:06

Звёздные Врата: Атлантида / Stargate: Atlantis

Год выпуска: 2004
Страна: США, Канада
Жанр: Фантастика, приключения
Продолжительность: 00:43:34

Перевод: Профессиональный (многоголосый закадровый) студия «Так Треба Продакшн»
Перевод 2: Профессиональный (многоголосый закадровый) студия "Инис"

Режиссёр: Martin Wood, Robert C. Cooper, Andy Mikita, Paul Ziller, William Waring, Brad Turner

В ролях: Joe Flanigan (Джон Шеппард), Torri Higginson (Элизабет Вейр), Rachel Luttrell (Тейла Эммаган), Jason Momoa (Ронон Декс), Paul McGillion (Карсон Беккет), David Hewlett (Родни МакКей), David Nykl (Радек Зеленка), Robert Picardo (Ричард Вулси), Mitch Pileggi (Стивен Колдвелл), Connor Trinneer (Майкл)

Описание: После победы над флотом Анубиса, люди начали изучение старого аванпоста Древних в Антарктиде, в результате чего был найден адрес Звёздных врат давно потерянного города Древних. Для изучения города была создана специальная экспедиция, отправившаяся через врата по найденному адресу в галактику Пегас. Прибыв на место, члены экспедиции поняли, что энергии МНТ, которая используется для поддержания города в рабочем состоянии, практически не осталось. Не имея возможности открыть тоннель назад в родную галактику, члены экспедиции всеми силами борются за выживание и пытаются найти возможность связаться с Землёй. Однако во время поисков они нашли страшного врага — Рэйфов, расу куда более опасную и жестокую, чем они когда-либо встречали в родной галактике.

Качество: BDRip 1080p
Контейнер: MKV

Видео: MPEG-4 AVC / 12700 kbps / 1920:1080p / 23.976 fps / 16:9 / 1.78:1
Аудио: AC3, 48 kHz, 2Ch, 384 kbps CBR AXN Sci-Fi (Tak Treba Production)
Аудио 2: AC3, 48 kHz 6 ch, 448 kbps CBR Инис ТВ-3
Субтитры: Нет
01-02.Пробуждение. Часть 1 и Часть 2 / Rising. Part 1 & Part 2
03. Игра в прятки / Hide And Seek
04. 38 минут / Thirty Eight Minutes
05. Подозрение / Suspicion
06. Детство закончилось / Childhood's End
07. Отравленный источник / Poisoning The Well
08. Подполье / Underground
09. Дом / Home
10. Шторм / The Storm
11. Глаз шторма / The Eye
12. Непокорный / The Defiant One
13. Опасная зона / Hot Zone
14. Убежище / Sanctuary
15. Прежде, чем я усну / Before I Sleep
16. Братство / The Brotherhood
17. Письма из галактики Пегас / Letters From Pegasus
18. Дар / The Gift
19. Осада. Часть 1 / The Siege. Part 1
20. Осада. Часть 2 / The Siege. Part 2

Полное имя :...................................Stargate.Atlantis.s01e01-02.BDRip.1080p.mkv
Формат : Matroska
Версия формата : Version 4 / Version 2
Размер файла : 8,25 Гбайт
Продолжительность : 1 ч. 28 м.
Режим общего битрейта : Постоянный
Общий поток : 13,4 Мбит/сек
Название фильма : STARGATE_ATLANTIS__SEASON_1__DISC_1.Title800
Дата кодирования : UTC 2015-10-04 08:42:31
Программа кодирования : mkvmerge v8.4.0 ('A better way to fly') 64bit
Библиотека кодирования : libebml v1.3.1 + libmatroska v1.4.2
DURATION : 01:28:01.952000000
NUMBER_OF_FRAMES : 165061
NUMBER_OF_BYTES : 253533696
_STATISTICS_WRITING_APP : mkvmerge v8.4.0 ('A better way to fly') 64bit
_STATISTICS_WRITING_DATE_UTC : 2015-10-04 08:42:31
_STATISTICS_TAGS : BPS DURATION NUMBER_OF_FRAMES NUMBER_OF_BYTES

Видео
Идентификатор : 1
Формат : AVC
Формат/Информация : Advanced Video Codec
Профиль формата : High@L4
Параметр CABAC формата : Да
Параметр ReFrames формата : 1 кадр
Параметр GOP формата : M=1, N=24
Идентификатор кодека : V_MPEG4/ISO/AVC
Продолжительность : 1 ч. 28 м.
Вид битрейта : Постоянный
Битрейт : 12,7 Мбит/сек
Ширина : 1920 пикселей
Высота : 1080 пикселей
Соотношение сторон : 16:9
Режим частоты кадров : Постоянный
Частота кадров : 23,976 кадра/сек
Цветовое пространство : YUV
Субдискретизация насыщенности : 4:2:0
Битовая глубина : 8 бит
Тип развёртки : Прогрессивная
Бит/(Пиксели*Кадры) : 0.255
Размер потока : 7,58 Гбайт (92%)
Default : Да
Forced : Нет
Цветовой диапазон : Limited
Основные цвета : BT.709
Характеристики трансфера : BT.709
Коэффициенты матрицы : BT.709

Аудио #1
Идентификатор : 2
Формат : AC-3
Формат/Информация : Audio Coding 3
Расширение режима : CM (complete main)
Параметр Endianness формата : Big
Идентификатор кодека : A_AC3
Продолжительность : 1 ч. 28 м.
Вид битрейта : Постоянный
Битрейт : 384 Кбит/сек
Каналы : 2 канала
Расположение каналов : Front: L R
Частота : 48,0 КГц
Метод сжатия : С потерями
Размер потока : 242 Мбайт (3%)
Заголовок : AXN SciFi
Язык : Russian
Default : Нет
Forced : Нет

Аудио #2
Идентификатор : 3
Формат : AC-3
Формат/Информация : Audio Coding 3
Расширение режима : CM (complete main)
Параметр Endianness формата : Big
Идентификатор кодека : A_AC3
Продолжительность : 1 ч. 28 м.
Вид битрейта : Постоянный
Битрейт : 448 Кбит/сек
Каналы : 6 каналов
Расположение каналов : Front: L C R, Side: L R, LFE
Частота : 48,0 КГц
Метод сжатия : С потерями
Размер потока : 282 Мбайт (3%)
Заголовок : TB-3
Язык : Russian
Default : Да
Forced : Нет

За предоставленную звуковую дорожку AXN SciFi спасибо уважаемому Kvin_akl. За предоставленные blu ray диски спасибо уважаемому Kanopus12

Автор: belshaman

Боцман
Аватара пользователя
Korsar
Помощник Администратора-Корсар
 
 

Награды: 19
За помощь проекту (1) За отличные раздачи и качество (9) Верный Сид (6) За участие в конкурсах (2)
  • Торрент
Для скачивания торрента необходимо зарегистрироваться или войти на трекер.

Вернуться в Зарубежные сериалы (HD Video)



Uptime по данным Ping-Admin.Ru - сервиса мониторинга доступности сайтов
Рейтинг@Mail.ru