logo
Международный русскоязычный
торрент-трекер
Menu

Doublon
Поделиться с друзьями: 
Голосуй за Корсар и получи 400 дублонов
Рейтинг торрент трекеров - UpTracker.ru

Золотой телёнок (1968, комедия, HD-DVDRip 720p) - KORSAR

Сообщение filbi1976 » 19 дек 2016, 22:18

Название: Золотой теленок
Год выхода: 1968
Жанр: комедия
Режиссер: Михаил Швейцер
В ролях: Сергей Юрский, Леонид Куравлёв, Зиновий Гердт, Евгений Евстигнеев, Светлана Старикова, Николай Боярский, Михаил Кокшенов, Павел Павленко, Павел Винник, Константин Воино

Описание: 'Великий комбинатор' Остап Бендер с детства мечтает о Рио-де-Жанейро. Ему известны множество способов 'сравнительно честного отъема денег у граждан'. Но где же в Советской России найти гражданина, обладающего хотя бы полумиллионом рублей? И вот подпольный миллионер, выдающий себя за скромного служащего на нищенском жалованьи, найден.И должен сам принести деньги Остапу 'на блюдечке с голубой каемочкой'. Как же великий комбинатор добьется этого? Сбудется ли мечта его детства? Об этом расскажет зрителю этот фильм с великолепным актерским ансамблем Сергей Юрский, Леонид Куравлев, Зиновий Гердт, Евгений Евстигнеев

Выпущено: СССР
Продолжительность: 02:40:01

#7#7

Файл
Кодек: х264
Качество: HD-DVDRip 720p - Custom
Видео: MPEG-4 AVC, 1280x560, 25 fps, 5555 Кбит/с
Звук: AC3, 6 ch, 448 Кбит/с, AC3, 2 ch, 192 Кбит/с


  • x264 [info]: frame I:1274 Avg QP:18.16 size:107906
  • x264 [info]: frame P:73759 Avg QP:19.93 size: 55178
  • x264 [info]: frame B:171003 Avg QP:21.79 size: 15358
===================================================================================
Общее
Уникальный идентификатор : 232245731264989395246604121397774765431 (0xAEB8E69CCA67C76596EA89F43B8BCD77)
Полное имя : D:\Золотой телёнок_1968-HD-DVDRip 720p.mkv
Формат : Matroska
Версия формата : Version 2
Размер файла : 7,10 Гбайт
Продолжительность : 2 ч. 44 м.
Общий поток : 6197 Кбит/сек
Дата кодирования : UTC 2016-12-19 18:59:49
Программа кодирования : mkvmerge v5.8.0 ('No Sleep / Pillow') built on Sep 2 2012 15:37:04
Библиотека кодирования : libebml v1.2.3 + libmatroska v1.3.0

Видео
Идентификатор : 1
Формат : AVC
Формат/Информация : Advanced Video Codec
Профиль формата : High@L4.1
Параметр CABAC формата : Да
Параметр ReFrames формата : 11 кадров
Идентификатор кодека : V_MPEG4/ISO/AVC
Продолжительность : 2 ч. 44 м.
Битрейт : 5555 Кбит/сек
Ширина : 1280 пикселей
Высота : 560 пикселей
Соотношение сторон : 2,25:1
Режим частоты кадров : Постоянный
Частота кадров : 25,000 кадров/сек
Цветовое пространство : YUV
Субдискретизация насыщенности : 4:2:0
Битовая глубина : 8 бит
Тип развёртки : Прогрессивная
Бит/(Пиксели*Кадры) : 0.310
Размер потока : 6,23 Гбайт (88%)
Заголовок : korsar.tv
Библиотека кодирования : x264 core 148 r2721kMod 72d53ab
Настройки программы : cabac=1 / ref=11 / deblock=1:-2:-2 / analyse=0x3:0x133 / me=umh / subme=10 / psy=1 / fade_compensate=0.00 / psy_rd=0.85:0.10 / mixed_ref=1 / me_range=32 / chroma_me=1 / trellis=2 / 8x8dct=1 / cqm=0 / deadzone=21,11 / fast_pskip=0 / chroma_qp_offset=-3 / threads=12 / lookahead_threads=2 / sliced_threads=0 / nr=0 / decimate=0 / interlaced=0 / bluray_compat=0 / constrained_intra=0 / fgo=0 / bframes=9 / b_pyramid=2 / b_adapt=2 / b_bias=0 / direct=3 / weightb=1 / open_gop=0 / weightp=2 / keyint=250 / keyint_min=25 / scenecut=40 / intra_refresh=0 / rc=2pass / mbtree=0 / bitrate=5555 / ratetol=1.0 / qcomp=0.63 / qpmin=0 / qpmax=39 / qpstep=4 / cplxblur=20.0 / qblur=0.5 / ip_ratio=1.20 / pb_ratio=1.30 / aq=2:0.60
Язык : English
Default : Да
Forced : Нет
Цветовой диапазон : Limited
Основные цвета : BT.709
Характеристики трансфера : BT.709
Коэффициенты матрицы : BT.709

Аудио #1
Идентификатор : 2
Формат : AC-3
Формат/Информация : Audio Coding 3
Расширение режима : CM (complete main)
Параметр Endianness формата : Big
Идентификатор кодека : A_AC3
Продолжительность : 2 ч. 44 м.
Вид битрейта : Постоянный
Битрейт : 448 Кбит/сек
Каналы : 6 каналов
Расположение каналов : Front: L C R, Side: L R, LFE
Частота : 48,0 КГц
Частота кадров : 31,250 кадров/сек (1536 spf)
Битовая глубина : 16 бит
Метод сжатия : С потерями
Задержка видео : 126 мс.
Размер потока : 526 Мбайт (7%)
Язык : Russian
Default : Да
Forced : Нет

Аудио #2
Идентификатор : 3
Формат : AC-3
Формат/Информация : Audio Coding 3
Профиль формата : Dolby Digital
Расширение режима : CM (complete main)
Параметр Endianness формата : Big
Идентификатор кодека : A_AC3
Продолжительность : 2 ч. 44 м.
Вид битрейта : Постоянный
Битрейт : 192 Кбит/сек
Каналы : 2 канала
Расположение каналов : Front: L R
Частота : 48,0 КГц
Частота кадров : 31,250 кадров/сек (1536 spf)
Битовая глубина : 16 бит
Метод сжатия : С потерями
Задержка видео : 1 с. 35 мс.
Размер потока : 225 Мбайт (3%)
Язык : Russian
Default : Нет
Forced : Нет

Меню
00:00:00.000 : en:Chapter 1
00:06:05.480 : en:Chapter 2
00:11:36.200 : en:Chapter 3
00:19:42.680 : en:Chapter 4
00:22:28.880 : en:Chapter 5
00:25:57.080 : en:Chapter 6
00:27:54.920 : en:Chapter 7
00:42:28.040 : en:Chapter 8
00:46:08.000 : en:Chapter 9
00:55:43.280 : en:Chapter 10
01:05:16.400 : en:Chapter 11
01:08:17.600 : en:Chapter 12
01:11:08.600 : en:Chapter 13
01:17:50.840 : en:Chapter 14
01:24:30.200 : en:Chapter 15
01:29:30.680 : en:Chapter 16
01:42:34.040 : en:Chapter 17
01:44:10.040 : en:Chapter 18
01:49:33.560 : en:Chapter 19
01:56:52.280 : en:Chapter 20
02:01:18.200 : en:Chapter 21
02:04:54.200 : en:Chapter 22
02:11:35.960 : en:Chapter 23
02:14:04.280 : en:Chapter 24
02:22:00.920 : en:Chapter 25
02:27:11.960 : en:Chapter 26
02:34:48.920 : en:Chapter 27
02:39:14.360 : en:Chapter 28

Аватара пользователя
filbi1976
Администратор-Корсар
 
 

Награды: 63
За помощь проекту (1) За отличные раздачи и качество (47) Верный Сид (12) За участие в конкурсах/играх (1)
Раздачи группы KORSAR разрешено перезаливать спустя сутки после публикации
  • Торрент
Для скачивания торрента необходимо зарегистрироваться или войти на трекер.

Сообщение filbi1976 » 19 дек 2016, 22:46

Только увидел что есть HDTVRip 720p, думал зря провозился, но вроде нет. :hi:
http://screenshotcomparison.com/comparison/194228
Аватара пользователя
filbi1976
Администратор-Корсар
 
 

Награды: 63
За помощь проекту (1) За отличные раздачи и качество (47) Верный Сид (12) За участие в конкурсах/играх (1)

Сообщение kwazar312 » 19 дек 2016, 23:31

Посмотрел "12 стульев",недавно залитый на сайт.Качество очень хорошее.Буду надеяться,что здесь качество будет отличным.Большое спасибо за фильм,актерский состав чего стоит,даже не верится,что такое созвездие собрали в одном фильме.Удачи ВАМ И НОВЫХ ХОРОШИХ РАБОТ.
Аватара пользователя
kwazar312
Заслуженный Корсар-Вип
 
 

Награды: 63
За помощь проекту (7) Лучший по количеству кубков (16) За отличные комментарии (10) Верный Сид (25) За участие в конкурсах/играх (5)

Сообщение verybigpapa » 20 дек 2016, 07:12

Великолепный фильм! Юрский, Гердт, Куравлев, Евстигнеев - вообще неподражаемы! На мой взгляд, Юрский - лучший Остап Бендер всех времен и народов. :good: Огромное спасибо за этот праздник, уважаемый filbi1976! :hi:
Улыбайтесь, господа! Улыбайтесь!
Аватара пользователя
verybigpapa
Заслуженный Корсар-Вип
 
 

Награды: 37
За помощь проекту (14) Лучший по количеству кубков (9) За отличные комментарии (5) Верный Сид (9)

Сообщение mister.hats » 20 дек 2016, 08:28

Спасибо Сереж. :hi:

Тот кто не с нами, тот против нас
Аватара пользователя
mister.hats
Заслуженный Корсар-Вип
 
 

Награды: 48
За помощь проекту (6) Лучший по количеству кубков (12) За отличные раздачи и качество (20) За подробное оформление раздач (1) За отличные комментарии (1) Верный Сид (8)

Сообщение bagrad » 24 дек 2016, 03:56

Спасибо большое Сергей! :hi:
verybigpapa писал(а):На мой взгляд, Юрский - лучший Остап Бендер всех времен и народов.

Совершенно согласен! :good: :good: :good:
Dum spíro, spéro!
Аватара пользователя
bagrad
Заслуженный Корсар-Вип
 
 

Награды: 19
За помощь проекту (2) Лучший по количеству кубков (9) За отличные комментарии (1) Верный Сид (7)

Сообщение kwazar312 » 23 авг 2018, 12:33

Зиновия Гердта любили миллионы, ему жали руку незнакомые люди в любом городе, где бы он ни был, в любой стране. Журналисты считали счастьем возможность взять у него интервью. Настоящий интеллигент. Светлый ум. Восхитительное чувство юмора. Невероятно талантлив. Он всегда приносил с собой праздник. Его любили и коллеги артисты, и режиссеры. Он дружил с талантливейшими писателями и поэтами. Голос Гердта знаком всей стране. Блистал в театре Образцова, в кино, в антрепризах. Гердт сыграл сотни ролей и его взгляд с экрана – грустный и проникновенный – всегда взывал к нашей душе и будил нашу совесть. Зиновий Гердт – это эпоха, огромная веха жизни нашей отечественной культуры.
Фильм на раздаче,скачивайте,пожалуйста.
Аватара пользователя
kwazar312
Заслуженный Корсар-Вип
 
 

Награды: 63
За помощь проекту (7) Лучший по количеству кубков (16) За отличные комментарии (10) Верный Сид (25) За участие в конкурсах/играх (5)

Сообщение кандыба » 25 авг 2018, 20:29

Огромное спасибо!
Аватара пользователя
кандыба
Опытный Корсар
 
 

Награды: 1
За отличные комментарии (1)

Сообщение SPQR1000 » 05 окт 2018, 12:39

Качество прекрасное.
Но есть один вопрос. Звук синхронизирован средствами контейнера. На большинстве трекеров это запрещено.
Аватара пользователя
SPQR1000
Опытный Корсар
 


Сообщение filbi1976 » 05 окт 2018, 16:36

SPQR1000 писал(а):Звук синхронизирован средствами контейнера. На большинстве трекеров это запрещено.

Вы пришли на Корсар поведать нам что и где запрещено? Может у Вас возникли проблемы со звуком и есть рассинхрон?
ЗЫ
Не тратьте зря своё и наше время, ибо тут хватает людей которые знают о правилах как Вы выразились "большинства трекеров", которые сочиняли далеко не профессионалы, которым 15 лет и не разу не редактировались и что эти правила бродят по трекерам путём копипаста.
Плюс мы не занимаемся обработкой звука без видимых на это причин, если Вам не нравятся цифры задержки в медиа инфо, могу выслать дороги, уберёте в Eacto3 эти циферки и смуксите заново. :hi:
Аватара пользователя
filbi1976
Администратор-Корсар
 
 

Награды: 63
За помощь проекту (1) За отличные раздачи и качество (47) Верный Сид (12) За участие в конкурсах/играх (1)

Сообщение SPQR1000 » 05 окт 2018, 22:09

filbi1976 писал(а):если Вам не нравятся цифры задержки в медиа инфо, могу выслать дороги, уберёте в Eacto3 эти циферки и смуксите заново.

Спасибо, я так и сделал. Сдемуксил еаком и заменил. А что касается "устаревших правил", то как раз после появления возможности просмотра на ТВ прямо с флешки, при синхронизации звука средствами контейнера возможны глюки. Особенно при перетяжке.
Аватара пользователя
SPQR1000
Опытный Корсар
 



Вернуться в Кино времён СССР (HD Video)



Uptime по данным Ping-Admin.Ru - сервиса мониторинга доступности сайтов
Рейтинг@Mail.ru Голосуйте за наш сайт в каталоге Rubo.Ru
cron