Korsar.tv - Скачать торрент - Золотой Гусь / Die goldene Gans (1964, Сказка, DVDRip-AVC) - KORSAR
logo
Международный русскоязычный
торрент-трекер
Menu

Doublon
Поделиться с друзьями: 
Голосуй за Корсар и получи 150 дублонов
Рейтинг торрент трекеров - UpTracker.ru

Золотой Гусь / Die goldene Gans (1964, Сказка, DVDRip-AVC) - KORSAR

Сообщение filbi1976 » 28 май 2018, 07:49

Золотой Гусь / Die goldene Gans

Страна: ГДР
Жанр: сказка
Год выпуска: 1964
Продолжительность: 01:03:57
Перевод: Профессиональный (дублированный)
Режиссер: Зигфрид Хартманн / Siegfried Hartmann
В ролях: Каспар Эйчел / Kaspar Eichel, Карин Уговски / Karin Ugowski, Уве Детлиф Йессен / Uwe-Detlev Jessen

Описание: В одном сказочном королевстве перестала смеяться принцесса. Никто не знает причины этого внезапного недуга. Озабоченный король обещает полкоролевства и дочь в жены тому, кто заставит принцессу хотя бы улыбнуться. О том, как умный, трудолюбивый и находчивый сапожник Клаус сумел рассмешить принцессу и жениться на ней, и рассказывает фильм.



Кодек: х264
Качество: DVDRip-AVC
Видео: MPEG-4 AVC, 716x568@763x568, 25 fps, 3473 Кбит/с
Звук: AC3, 2 ch, 192 Кбит/с



  • x264 [info]: frame I:570 Avg QP:19.53 size: 89048
  • x264 [info]: frame P:23748 Avg QP:20.95 size: 38934
  • x264 [info]: frame B:71622 Avg QP:23.24 size: 10154
  • x264 [info]: consecutive B-frames: 2.8% 3.4% 9.8% 36.3% 19.5% 25.5% 2.0% 0.6% 0.2%
Общее
Уникальный идентификатор : 187131354169410996845241558353567936210 (0x8CC830172002F52E9175F6641E85EED2)
Полное имя : D:\Золотой гусь_1964-DVDRip-AVC_KORSAR.mkv
Формат : Matroska
Версия формата : Version 2
Размер файла : 1,76 Гбайт
Продолжительность : 1 ч. 3 м.
Общий поток : 3935 Кбит/сек
Название фильма : Золотой гусь_1964-DVDRip-AVC_KORSAR
Дата кодирования : UTC 2018-05-28 04:47:12
Программа кодирования : mkvmerge v5.8.0 ('No Sleep / Pillow') built on Sep 2 2012 15:37:04
Библиотека кодирования : libebml v1.2.3 + libmatroska v1.3.0

Видео
Идентификатор : 1
Формат : AVC
Формат/Информация : Advanced Video Codec
Профиль формата : High@L4.1
Параметр CABAC формата : Да
Параметр RefFrames формата : 13 кадров
Идентификатор кодека : V_MPEG4/ISO/AVC
Продолжительность : 1 ч. 3 м.
Битрейт : 3473 Кбит/сек
Ширина : 716 пикселей
Высота : 568 пикселей
Соотношение сторон : 4:3
Соотношение сторон в оригинале : 4:3
Режим частоты кадров : Постоянный
Частота кадров : 25,000 кадров/сек
Цветовое пространство : YUV
Субдискретизация насыщенности : 4:2:0
Битовая глубина : 8 бит
Тип развёртки : Прогрессивная
Бит/(Пиксели*Кадры) : 0.342
Размер потока : 1,55 Гбайт (88%)
Библиотека кодирования : x264 core 152 r2851kMod ba24899
Настройки программы : cabac=1 / ref=13 / deblock=1:-2:-1 / analyse=0x3:0x133 / me=umh / subme=10 / psy=1 / fade_compensate=0.00 / psy_rd=1.05:0.10 / mixed_ref=1 / me_range=32 / chroma_me=1 / trellis=2 / 8x8dct=1 / cqm=0 / deadzone=21,11 / fast_pskip=1 / chroma_qp_offset=-3 / threads=12 / lookahead_threads=2 / sliced_threads=0 / nr=0 / decimate=1 / interlaced=0 / bluray_compat=0 / constrained_intra=0 / bframes=8 / b_pyramid=2 / b_adapt=2 / b_bias=0 / direct=1 / weightb=1 / open_gop=0 / weightp=2 / keyint=240 / keyint_min=24 / scenecut=40 / intra_refresh=0 / rc=crf / mbtree=0 / crf=16.9000 / qcomp=0.63 / qpmin=0 / qpmax=39 / qpstep=4 / ip_ratio=1.40 / pb_ratio=1.30 / aq=1:1.00
Язык : English
Default : Да
Forced : Нет
Цветовой диапазон : Limited
Основные цвета : BT.601 PAL
Характеристики трансфера : BT.470 System B, BT.470 System G
Коэффициенты матрицы : BT.601

Аудио #1
Идентификатор : 2
Формат : AC-3
Формат/Информация : Audio Coding 3
Параметр Endianness формата : Big
Идентификатор кодека : A_AC3
Продолжительность : 1 ч. 3 м.
Вид битрейта : Постоянный
Битрейт : 192 Кбит/сек
Каналы : 2 канала
Расположение каналов : Front: L R
Частота : 48,0 КГц
Частота кадров : 31,250 кадров/сек (1536 SPF)
Битовая глубина : 16 бит
Метод сжатия : С потерями
Размер потока : 87,8 Мбайт (5%)
Язык : Russian
ServiceKind/String : Complete Main
Default : Да
Forced : Нет

Аудио #2
Идентификатор : 3
Формат : AC-3
Формат/Информация : Audio Coding 3
Параметр Endianness формата : Big
Идентификатор кодека : A_AC3
Продолжительность : 1 ч. 3 м.
Вид битрейта : Постоянный
Битрейт : 192 Кбит/сек
Каналы : 2 канала
Расположение каналов : Front: L R
Частота : 48,0 КГц
Частота кадров : 31,250 кадров/сек (1536 SPF)
Битовая глубина : 16 бит
Метод сжатия : С потерями
Размер потока : 87,8 Мбайт (5%)
Язык : English
ServiceKind/String : Complete Main
Default : Нет
Forced : Нет

Аватара пользователя
filbi1976
Администратор-Корсар
 
 

Награды: 51
За помощь проекту (1) За отличные раздачи и качество (37) Верный Сид (10) За участие в конкурсах/играх (1)
Раздачи группы KORSAR разрешено перезаливать спустя сутки после публикации
  • Торрент
Для скачивания торрента необходимо зарегистрироваться или войти на трекер.

Сообщение alcominimalist » 28 май 2018, 12:14

Большое спасибо за выполненный заказ! :hi: В детстве смотрел эту сказку. По мотивам одноимённой сказки братьев Гримм.
Раньше хорошие сказки снимали ГДР и ЧССР.
Аватара пользователя
alcominimalist
Заслуженный Корсар-Вип
 
 

Награды: 29
За помощь проекту (2) Лучший по количеству кубков (5) За отличные комментарии (8) Почётный форумчанин (3) Верный Сид (7) За участие в конкурсах/играх (4)

Сообщение Bars_St » 28 май 2018, 14:21

Спасибо!!! :hi: :hi: :hi: Добрая сказка... :good: :good: :good:
Аватара пользователя
Bars_St
Заслуженный Корсар-Вип
 
 

Награды: 29
За помощь проекту (10) Лучший по количеству кубков (4) За отличные комментарии (7) Верный Сид (8)

Сообщение major05 » 30 май 2018, 18:36

Здравствуйте! Поправьте, пожалуйста, фильм - 1974 года. Качество - супер! Спасибо!
Аватара пользователя
major05
Корсар
 
 

Награды: 2
Верный Сид (2)

Сообщение kisa1980 » 30 май 2018, 18:43

major05 писал(а):Поправьте, пожалуйста, фильм - 1974 года

Аватара пользователя
kisa1980
Главный помощник Администратора-Корсар
 
 

Награды: 46
За помощь проекту (7) Лучший по количеству кубков (3) За отличные раздачи и качество (15) За подробное оформление раздач (4) За отличные комментарии (4) Почётный форумчанин (2) Верный Сид (7) За участие в конкурсах/играх (2)

Сообщение alcominimalist » 31 май 2018, 09:44

Есть еще один фильм ''Золотой гусь'' 2013 года. На некоторых сайтах указан его год выпуска почему-то как 1974 год.
Есть диафильм ''Золотой гусь'' 1974 года.
Аватара пользователя
alcominimalist
Заслуженный Корсар-Вип
 
 

Награды: 29
За помощь проекту (2) Лучший по количеству кубков (5) За отличные комментарии (8) Почётный форумчанин (3) Верный Сид (7) За участие в конкурсах/играх (4)


Вернуться в Классика зарубежного кино (фильмы до 1980 года)



Uptime по данным Ping-Admin.Ru - сервиса мониторинга доступности сайтов
Рейтинг@Mail.ru