logo
Международный русскоязычный
торрент-трекер
Menu

Doublon
Поделиться с друзьями: 
Голосуй за Корсар и получи 400 дублонов
Рейтинг торрент трекеров - UpTracker.ru

Заклятие долины змей / Klatwa doliny wezy (1987, Приключения, DVDRip-AVC) - KORSAR

Сообщение mister.hats » 08 июн 2018, 20:49

Заклятие долины змей / Klatwa doliny wezy


Страна: Польша, СССР
Жанр: Приключения
Год выпуска: 1987
Продолжительность: 01:39:29
Перевод: Дублированный
Режиссер: Марек Пестрак / Marek Piestrak
В ролях: Кшиштоф Кольбергер, Роман Вильгельми, Эва Салацка, Збигнев Лесень, Леон Немчик, Игор Пшегродский, Зигмунт Белявский, Хенрик Биста, Сергей Десницкий, Микк Микивер

Описание: Парижский антиквар Травен некогда выкрал из лаосского монастыря священную реликвию и манускрипт, гласивший, что в Долине Тысячи Змей хранится оружие, обладатель которого станет властелином мира.
Проходит время, и Травен с польским ученым отправляются в экспедицию в Долину, не подозревая, что тайна манускрипта известна не только им…



Кодек: х264
Качество: DVDRip-AVC
Видео: MPEG-4 AVC, 698х440@744x440, 25 fps, 4750 Кбит/с
Аудио 1: Русский, АС3, 6 сh, 448 Кбит/с
Аудио 2: Польский, АС3, 2 сh, 224 Кбит/с
Субтитры: Нет
Главы: Есть


x264 [info]: frame I:1036 Avg QP:19.27 size: 79037
x264 [info]: frame P:33301 Avg QP:21.44 size: 45263
x264 [info]: frame B:114888 Avg QP:23.22 size: 17020

Общее
Уникальный идентификатор : 235995330779426201603012753390132550821 (0xB18B0C2443F426C98216E0F37EB45CA5)
Полное имя : I:\кино\Заклятие долины змей 1987_DVDRip-AVC_KORSAR.mkv
Формат : Matroska
Версия формата : Version 2
Размер файла : 3,77 Гбайт
Продолжительность : 1 ч. 39 м.
Общий поток : 5425 Кбит/сек
Название фильма : mister.hats
Дата кодирования : UTC 2018-06-08 17:36:50
Программа кодирования : mkvmerge v5.8.0 ('No Sleep / Pillow') built on Sep 2 2012 15:37:04
Библиотека кодирования : libebml v1.2.3 + libmatroska v1.3.0

Видео
Идентификатор : 1
Формат : AVC
Формат/Информация : Advanced Video Codec
Профиль формата : High@L4.1
Настройки формата : CABAC / 14 Ref Frames
Параметр CABAC формата : Да
Параметр RefFrames формата : 14 кадров
Идентификатор кодека : V_MPEG4/ISO/AVC
Продолжительность : 1 ч. 39 м.
Битрейт : 4750 Кбит/сек
Ширина : 698 пикселей
Высота : 440 пикселей
Соотношение сторон : 5:3
Соотношение сторон в оригинале : 5:3
Режим частоты кадров : Постоянный
Частота кадров : 25,000 кадров/сек
Цветовое пространство : YUV
Субдискретизация насыщенности : 4:2:0
Битовая глубина : 8 бит
Тип развёртки : Прогрессивная
Бит/(Пиксели*Кадры) : 0.619
Размер потока : 3,23 Гбайт (86%)
Библиотека кодирования : x264 core 152 r2851kMod ba24899
Настройки программы : cabac=1 / ref=14 / deblock=1:-2:-1 / analyse=0x3:0x133 / me=umh / subme=11 / psy=1 / fade_compensate=0.00 / psy_rd=1.00:0.05 / mixed_ref=1 / me_range=48 / chroma_me=1 / trellis=2 / 8x8dct=1 / cqm=0 / deadzone=21,11 / fast_pskip=0 / chroma_qp_offset=-3 / threads=12 / lookahead_threads=3 / sliced_threads=0 / nr=0 / decimate=0 / interlaced=0 / bluray_compat=0 / constrained_intra=0 / bframes=10 / b_pyramid=2 / b_adapt=2 / b_bias=0 / direct=3 / weightb=1 / open_gop=0 / weightp=2 / keyint=250 / keyint_min=25 / scenecut=40 / intra_refresh=0 / rc_lookahead=40 / rc=2pass / mbtree=0 / bitrate=4750 / ratetol=1.0 / qcomp=0.60 / qpmin=0 / qpmax=39 / qpstep=4 / cplxblur=20.0 / qblur=0.5 / vbv_maxrate=50000 / vbv_bufsize=62500 / nal_hrd=none / filler=0 / ip_ratio=1.25 / pb_ratio=1.30 / aq=1:1.00
Язык : English
Default : Да
Forced : Нет
Цветовой диапазон : Limited
Основные цвета : BT.601 PAL
Характеристики трансфера : BT.470 System B, BT.470 System G
Коэффициенты матрицы : BT.470 System B, BT.470 System G

Аудио #1
Идентификатор : 2
Формат : AC-3
Формат/Информация : Audio Coding 3
Параметр Endianness формата : Big
Идентификатор кодека : A_AC3
Продолжительность : 1 ч. 39 м.
Вид битрейта : Постоянный
Битрейт : 448 Кбит/сек
Каналы : 6 каналов
Расположение каналов : Front: L C R, Side: L R, LFE
Частота : 48,0 КГц
Частота кадров : 31,250 кадров/сек (1536 SPF)
Битовая глубина : 16 бит
Метод сжатия : С потерями
Размер потока : 319 Мбайт (8%)
Язык : Russian
Default : Да
Forced : Нет

Аудио #2
Идентификатор : 3
Формат : AC-3
Формат/Информация : Audio Coding 3
Режим : Dolby Digital
Параметр Endianness формата : Big
Идентификатор кодека : A_AC3
Продолжительность : 1 ч. 39 м.
Вид битрейта : Постоянный
Битрейт : 224 Кбит/сек
Каналы : 2 канала
Расположение каналов : Front: L R
Частота : 48,0 КГц
Частота кадров : 31,250 кадров/сек (1536 SPF)
Битовая глубина : 16 бит
Метод сжатия : С потерями
Размер потока : 159 Мбайт (4%)
Язык : Polish
Default : Нет
Forced : Нет

Меню
00:00:00.000 : en:Chapter 1
00:06:17.520 : en:Chapter 2
00:12:34.760 : en:Chapter 3
00:20:03.240 : en:Chapter 4
00:24:07.560 : en:Chapter 5
00:29:20.080 : en:Chapter 6
00:35:54.320 : en:Chapter 7
00:42:12.960 : en:Chapter 8
00:48:31.440 : en:Chapter 9
00:54:26.120 : en:Chapter 10
01:02:53.320 : en:Chapter 11
01:09:50.600 : en:Chapter 12
01:16:13.160 : en:Chapter 13
01:24:54.360 : en:Chapter 14
01:30:48.280 : en:Chapter 15
01:36:59.360 : en:Chapter 16





Тот кто не с нами, тот против нас
КУБКИ

СТАЖ

МЕДАЛИ
Награды:52

За помощь проекту (7) Лучший по количеству кубков (13) За отличные раздачи и качество (21) За подробное оформление раздач (2) За отличные комментарии (1) Верный Сид (8)

Аватара пользователя
Тортуга
mister.hats
Заслуженный Корсар-Вип
Раздачи группы KORSAR разрешено перезаливать спустя сутки после публикации
  • Торрент
Для скачивания торрента необходимо зарегистрироваться или войти на трекер.

Сообщение verybigpapa » 08 июн 2018, 21:37

Уважжаемый mister.hats, большое спасибо. :hi: :respect:
Улыбайтесь, господа! Улыбайтесь!
КУБКИ

СТАЖ

МЕДАЛИ
Награды:39

За помощь проекту (15) Лучший по количеству кубков (9) За отличные комментарии (5) Верный Сид (10)

Аватара пользователя
СССР
verybigpapa
Заслуженный Корсар-Вип


Вернуться в Зарубежное кино (1981-1990)



Uptime по данным Ping-Admin.Ru - сервиса мониторинга доступности сайтов
Рейтинг@Mail.ru Голосуйте за наш сайт в каталоге Rubo.Ru