logo
Международный русскоязычный
торрент-трекер
Menu

Doublon
Поделиться с друзьями: 
Голосуй за Корсар и получи 400 дублонов
Рейтинг торрент трекеров - UpTracker.ru

Загадки темной материи / Le mystère de la matière noire (2012, документальный, космос, исследования, WEB-DL 1080p)

Сообщение inet2663 » 05 янв 2018, 12:51

Название: Загадки темной материи
Оригинальное название: Le mystère de la matière noire
Год выпуска: 2012
Жанр: документальный, космос, исследования
Режиссёр: Сесиль Данжан

О фильме: Факты упрямая вещь: масса всех объектов во Вселенной, которые мы знаем и можем наблюдать, составляет лишь 5%. Все остальное - это неизвестный материал, материя, которую мы не видим и не можем найти. Её назвали "чёрная материя". Какова природа этого феномена и существует ли он? Если да, то это приведет к необходимости переписать все постулаты физики со времен Ньютона и Эйнштейна...



Выпущено: Франция, ARTE France, Scientifilms, CEA, CNRS Images
Перевод: Профессиональный одноголосый
Продолжительность: 00:54:56

Качество: WEB-DL 1080p
Видео: MPEG-4 AVC, ~7949 Кбит/с, 1920x1080
Аудио 1: Русский: 48 kHz, AC3, 2/0 (L,R) ch, ~192.00 kbps avg | ГТРК "Культура" |
Аудио 2: Украинский: 48 kHz, AC3, 2/0 (L,R) ch, ~192.00 kbps avg
Аудио 3: Английский: 48 kHz, AC3, 2/0 (L,R) ch, ~224.00 kbps avg
Субтитры: Английские

Релиз от:

Format : Matroska
Format version : Version 4 / Version 2
File size : 3.28 GiB
Duration : 54 min 55 s
Overall bit rate mode : Variable
Overall bit rate : 8 560 kb/s
Encoded date : UTC 2018-01-04 11:13:18
Writing application : mkvmerge v8.0.0 ('Til The Day That I Die') 32bit
Writing library : libebml v1.3.1 + libmatroska v1.4.2

Video
ID : 1
Format : AVC
Format/Info : Advanced Video Codec
Format profile : High@L4
Format settings, CABAC : Yes
Format settings, ReFrames : 4 frames
Codec ID : V_MPEG4/ISO/AVC
Duration : 54 min 55 s
Bit rate mode : Variable
Bit rate : 7 949 kb/s
Maximum bit rate : 15.0 Mb/s
Width : 1 920 pixels
Height : 1 080 pixels
Display aspect ratio : 16:9
Frame rate mode : Constant
Frame rate : 25.000 FPS
Color space : YUV
Chroma subsampling : 4:2:0
Bit depth : 8 bits
Scan type : Progressive
Bits/(Pixel*Frame) : 0.153
Stream size : 3.05 GiB (93%)
Default : Yes
Forced : No
Color range : Limited
Color primaries : BT.709
Transfer characteristics : BT.709
Matrix coefficients : BT.709

Audio #1
ID : 2
Format : AC-3
Format/Info : Audio Coding 3
Mode extension : CM (complete main)
Format settings, Endianness : Big
Codec ID : A_AC3
Duration : 54 min 55 s
Bit rate mode : Constant
Bit rate : 192 kb/s
Channel(s) : 2 channels
Channel positions : Front: L R
Sampling rate : 48.0 kHz
Frame rate : 31.250 FPS (1536 spf)
Bit depth : 16 bits
Compression mode : Lossy
Stream size : 75.4 MiB (2%)
Title : rus 2.0
Language : Russian
Default : Yes
Forced : Yes

Audio #2
ID : 3
Format : AC-3
Format/Info : Audio Coding 3
Mode extension : CM (complete main)
Format settings, Endianness : Big
Codec ID : A_AC3
Duration : 54 min 55 s
Bit rate mode : Constant
Bit rate : 192 kb/s
Channel(s) : 2 channels
Channel positions : Front: L R
Sampling rate : 48.0 kHz
Frame rate : 31.250 FPS (1536 spf)
Bit depth : 16 bits
Compression mode : Lossy
Stream size : 75.4 MiB (2%)
Title : ukr 2.0
Language : Ukrainian
Default : No
Forced : No

Audio #3
ID : 4
Format : AC-3
Format/Info : Audio Coding 3
Mode extension : CM (complete main)
Format settings, Endianness : Big
Codec ID : A_AC3
Duration : 54 min 55 s
Bit rate mode : Constant
Bit rate : 224 kb/s
Channel(s) : 2 channels
Channel positions : Front: L R
Sampling rate : 48.0 kHz
Frame rate : 31.250 FPS (1536 spf)
Bit depth : 16 bits
Compression mode : Lossy
Stream size : 88.0 MiB (3%)
Title : eng 2.0
Language : English
Default : No
Forced : No

Text #1
ID : 5
Format : UTF-8
Codec ID : S_TEXT/UTF8
Codec ID/Info : UTF-8 Plain Text
Duration : 54 min 9 s
Bit rate : 83 b/s
Count of elements : 894
Stream size : 33.2 KiB (0%)
Title : SRT
Language : English
Default : No
Forced : No

Text #2
ID : 6
Format : UTF-8
Codec ID : S_TEXT/UTF8
Codec ID/Info : UTF-8 Plain Text
Duration : 54 min 26 s
Bit rate : 86 b/s
Count of elements : 916
Stream size : 34.5 KiB (0%)
Title : SDH
Language : English
Default : No
Forced : No


КУБКИ

СТАЖ

МЕДАЛИ
Награды:33

За помощь проекту (5) Лучший по количеству кубков (5) За отличные раздачи и качество (11) За подробное оформление раздач (1) Верный Сид (11)

Аватара пользователя
СССР
inet2663
Заслуженный Корсар-Вип
  • Торрент
Для скачивания торрента необходимо зарегистрироваться или войти на трекер.

Сообщение filbi1976 » 05 янв 2018, 18:19

inet2663, спасибо! :hi:
КУБКИ

СТАЖ

МЕДАЛИ
Награды:65

За помощь проекту (1) За отличные раздачи и качество (49) Верный Сид (12) За участие в конкурсах/играх (1)

Аватара пользователя
Тортуга
filbi1976
Администратор-Корсар


Вернуться в Космос (HD Video)



Uptime по данным Ping-Admin.Ru - сервиса мониторинга доступности сайтов
Рейтинг@Mail.ru Голосуйте за наш сайт в каталоге Rubo.Ru