logo
Международный русскоязычный
торрент-трекер
Menu
Doublon
Поделиться с друзьями: 
Голосуй за Корсар и получи 500 дублонов
Рейтинг торрент трекеров - UpTracker.ru

Забегаловка / Diner (1982, Комедия, BDRemux 1080p)

Сообщение al1ksandr » 16 фев 2020, 20:06

Название: Забегаловка
Оригинальное название: Diner
Год выпуска: 1982
Жанр: Комедия
Режиссер: Бэрри Левинсон
В ролях: Стив Гуттенберг, Дэниэл Стерн, Микки Рурк, Кевин Бэйкон, Тим Дэли, Эллен Баркин, Пол Райзер, Кэтрин Даулинг, Майкл Такер, Джессика Джеймс

О фильме: Закадычные друзья, проводящие дни и ночи напролет в старомодной дешевой забегаловке небольшого городка 50-х годов, задушевно беседуя о «своем». Женщины, азартные игры, «соленые» анекдоты - вот далеко неполный перечень тем и откровений молодых людей, переваливших 20-тилетний рубеж, которым предстоит научиться справляться с проблемами взрослой жизни и попрощаться с юношеской беззаботностью.



Выпущено: США, Metro-Goldwyn-Mayer (MGM), SLM Production Group
Продолжительность: 01:49:57
Перевод: Профессиональный двухголосый, любительский одноголосый

Качество: BDRemux 1080p
Видео: MPEG-4 AVC, 24.4 Мбит/с, 1920x1080
Аудио 1: Русский (AC3, 2 ch, 192 Кбит/с) | Профессиональный (двухголосый закадровый) НТВ+
Аудио 2: Русский (AC3, 1 ch, 192 Кбит/с) | Одноголосый закадровый Мазур
Аудио 3: Английский (DTS-HD MA, 1 ch, 800 Кбит/с)
Субтитры: Английские




Общее
Уникальный идентификатор : 224330779365907404053587478171479597887 (0xA8C4895ADF5563429D249932BB8A633F)
Полное имя : Y:\Забегаловка - Diner (1982) BDRemux 1080p \Diner 1982 1080p Blu-ray Remux AVC DTS-HD MA 1.0 - KRaLiMaRKo.mkv
Формат : Matroska
Версия формата : Version 2
Размер файла : 20,1 Гбайт
Продолжительность : 1 ч. 49 м.
Режим общего битрейта : Переменный
Общий поток : 26,1 Мбит/сек
Название фильма : Diner 1982 1080p Blu-ray Remux AVC DTS-HD MA 1.0 - KRaLiMaRKo
Дата кодирования : UTC 2020-01-19 17:06:36
Программа кодирования : mkvmerge v7.8.0 ('River Man') 32bit built on Apr 3 2015 12:11:22
Библиотека кодирования : libebml v1.3.1 + libmatroska v1.4.2

Видео
Идентификатор : 1
Формат : AVC
Формат/Информация : Advanced Video Codec
Профиль формата : High@L4.1
Параметр CABAC формата : Да
Параметр ReFrames формата : 2 кадра
Параметр GOP формата : M=1, N=10
Идентификатор кодека : V_MPEG4/ISO/AVC
Продолжительность : 1 ч. 49 м.
Вид битрейта : Переменный
Битрейт : 24,4 Мбит/сек
Ширина : 1920 пикселей
Высота : 1080 пикселей
Соотношение сторон : 16:9
Режим частоты кадров : Постоянный
Частота кадров : 23,976 кадра/сек
Цветовое пространство : YUV
Субдискретизация насыщенности : 4:2:0
Битовая глубина : 8 бит
Тип развёртки : Прогрессивная
Бит/(Пиксели*Кадры) : 0.491
Размер потока : 18,7 Гбайт (93%)
Заголовок : Release by Deadmauvlad
Язык : English
Default : Да
Forced : Нет

Аудио #1
Идентификатор : 2
Формат : AC-3
Формат/Информация : Audio Coding 3
Расширение режима : CM (complete main)
Параметр Endianness формата : Big
Идентификатор кодека : A_AC3
Продолжительность : 1 ч. 49 м.
Вид битрейта : Постоянный
Битрейт : 192 Кбит/сек
Каналы : 2 канала
Расположение каналов : Front: L R
Частота : 48,0 КГц
Битовая глубина : 16 бит
Метод сжатия : С потерями
Размер потока : 151 Мбайт (1%)
Заголовок : Профессиональный (двухголосый закадровый) НТВ+
Язык : Russian
Default : Нет
Forced : Нет

Аудио #2
Идентификатор : 3
Формат : AC-3
Формат/Информация : Audio Coding 3
Расширение режима : CM (complete main)
Параметр Endianness формата : Big
Идентификатор кодека : A_AC3
Продолжительность : 1 ч. 49 м.
Вид битрейта : Постоянный
Битрейт : 192 Кбит/сек
Каналы : 1 канал
Расположение каналов : Front: C
Частота : 48,0 КГц
Битовая глубина : 16 бит
Метод сжатия : С потерями
Размер потока : 151 Мбайт (1%)
Заголовок : Одноголосый закадровый Мазур
Язык : Russian
Default : Нет
Forced : Нет

Аудио #3
Идентификатор : 4
Формат : DTS
Формат/Информация : Digital Theater Systems
Профиль формата : MA / Core
Идентификатор кодека : A_DTS
Продолжительность : 1 ч. 49 м.
Вид битрейта : Переменный
Битрейт : 800 Кбит/сек / 755 Кбит/сек
Каналы : 1 канал
Расположение каналов : Front: C
Частота : 48,0 КГц
Битовая глубина : 24 бит
Метод сжатия : Без потерь / Lossy
Язык : English
Default : Нет
Forced : Нет

Текст #1
Идентификатор : 5
Формат : UTF-8
Идентификатор кодека : S_TEXT/UTF8
Идентификатор кодека/Информация : UTF-8 Plain Text
Язык : English
Default : Нет
Forced : Нет

Текст #2
Идентификатор : 6
Формат : UTF-8
Идентификатор кодека : S_TEXT/UTF8
Идентификатор кодека/Информация : UTF-8 Plain Text
Язык : English
Default : Нет
Forced : Нет

Скачать семпл
КУБКИ

СТАЖ

МЕДАЛИ
Награды:48

За активную помощь проекту (4) Лучший по количеству кубков (15) За отличные раздачи и качество (9) За отличные комментарии (14) Почётный форумчанин (2) Верный Сид (1) За участие в конкурсах/играх (2)

Аватара пользователя
СССР
al1ksandr
Главный Модератор-Корсар
  • Торрент
Для скачивания торрента необходимо зарегистрироваться или войти на трекер.

Вернуться в Зарубежное кино (1981-1990 / HD Video)



Uptime по данным Ping-Admin.Ru - сервиса мониторинга доступности сайтов
Рейтинг@Mail.ru