logo
Международный русскоязычный
торрент-трекер
Menu
"Бунт на корабле", за скачанные торрент-файлы дублоны не снимаются. Возможность оплачена пользователем Жорин Сергей.
Doublon
Поделиться с друзьями: 
Голосуй за Корсар и получи 500 дублонов
Рейтинг торрент трекеров - UpTracker.ru

Забавные приключения Дика и Джейн / Fun with Dick and Jane (1977, комедия, криминал, DVDRip-AVC)

Сообщение Pupok_88 » 20 мар 2018, 12:35

Название: Забавные приключения Дика и Джейн
Оригинальное название: Fun with Dick and Jane
Год выхода: 1977
Жанр: Комедия, криминал
Режиссер: Тед Котчефф
В ролях: Джордж Сигал, Джейн Фонда, Эд МакМахон, Ричард Готье, Аллан Миллер, Хэнк Гарсиа, Джон Денер, Уолтер Брук, Шон Фрай, Мэри Джексон

Страна: США
Студия: Columbia Pictures Corporation
Продолжительность: 01:35:36
Перевод: Дублированный + профессиональный многоголосый закадровый + профессиональный двуголосый закадровый

Описание: Дик и Джейн были обычной американской семьей среднего класса Америки. Дик работал в крупной аэрокосмической компании, а Джейн вела хозяйство и воспитывала сына. Они только что переехали в новый дом, и вдруг Дика увольняют с работы. Новой работы он найти не может и оказывается в очереди за пособием. За дом еще нужно выплатить 75 тыс. долларов. Джейн находит мало оплачиваемую работу, обращается за помощью к родителям, но отец отказывается одолжить денег, утверждая, что трудные дни только закалят их с мужем…



Качество: DVDRip-AVC
Формат: MKV
Видео: AVC/H.264, 720x400, ~1925 Kbps
Аудио 1: Русский, AC3, 2 ch, 192 Kbps, 48.0 kHz (Dub, киностудия им. М. Горького)
Аудио 2: Русский, AC3, 2 ch, 192 Kbps, 48.0 kHz (MVO, Петербург 5-й канал)
Аудио 3: Русский, AC3, 1 ch, 96 Kbps, 48.0 kHz (MVO, НТВ+)
Аудио 4: Русский, AC3, 1 ch, 96 Kbps, 48.0 kHz (DVO, НТВ+)
Аудио 5: Английский, AC3, 2 ch, 192 Kbps, 48.0 kHz (Оригинал)

Общее
Уникальный идентификатор : 249237971619433673620035756209900757961 (0xBB817CBE83B545EEA6EB6FE20F7623C9)
Полное имя : F:DownloadsЗабавные приключения Дика и Джейн. 1976. NNMCLUB.mkv
Формат : Matroska
Версия формата : Version 4 / Version 2
Размер файла : 1,80 Гбайт
Продолжительность : 1 ч. 35 м.
Общий поток : 2696 Кбит/сек
Дата кодирования : UTC 2018-03-15 10:14:56
Программа кодирования : mkvmerge v7.9.0 ('Birds') 64bit
Библиотека кодирования : libebml v1.3.1 + libmatroska v1.4.2

Видео
Идентификатор : 1
Формат : AVC
Формат/Информация : Advanced Video Codec
Профиль формата : High@L4.1
Настройки формата : CABAC / 12 Ref Frames
Параметр CABAC формата : Да
Параметр RefFrames формата : 12 кадров
Идентификатор кодека : V_MPEG4/ISO/AVC
Продолжительность : 1 ч. 35 м.
Битрейт : 1925 Кбит/сек
Ширина : 720 пикселей
Высота : 400 пикселей
Соотношение сторон : 16:9
Режим частоты кадров : Постоянный
Частота кадров : 23,976 (24000/1001) кадра/сек
Цветовое пространство : YUV
Субдискретизация насыщенности : 4:2:0
Битовая глубина : 8 бит
Тип развёртки : Прогрессивная
Бит/(Пиксели*Кадры) : 0.279
Размер потока : 1,29 Гбайт (71%)
Заголовок : Fun with Dick and Jane
Библиотека кодирования : x264 core 146 r2538 121396c
Настройки программы : cabac=1 / ref=12 / deblock=1:-1:-1 / analyse=0x3:0x113 / me=umh / subme=10 / psy=1 / psy_rd=1.00:0.10 / mixed_ref=1 / me_range=32 / chroma_me=1 / trellis=2 / 8x8dct=1 / cqm=0 / deadzone=21,11 / fast_pskip=0 / chroma_qp_offset=-3 / threads=6 / lookahead_threads=1 / sliced_threads=0 / nr=0 / decimate=0 / interlaced=0 / bluray_compat=0 / constrained_intra=0 / bframes=7 / b_pyramid=2 / b_adapt=2 / b_bias=0 / direct=3 / weightb=1 / open_gop=0 / weightp=2 / keyint=250 / keyint_min=25 / scenecut=40 / intra_refresh=0 / rc_lookahead=60 / rc=2pass / mbtree=1 / bitrate=1925 / ratetol=1.0 / qcomp=0.60 / qpmin=0 / qpmax=69 / qpstep=4 / cplxblur=20.0 / qblur=0.5 / vbv_maxrate=14000 / vbv_bufsize=14000 / nal_hrd=none / filler=0 / ip_ratio=1.40 / aq=1:1.00
Язык : English
Default : Да
Forced : Нет

Аудио #1
Идентификатор : 2
Формат : AC-3
Формат/Информация : Audio Coding 3
Идентификатор кодека : A_AC3
Продолжительность : 1 ч. 35 м.
Вид битрейта : Постоянный
Битрейт : 192 Кбит/сек
Каналы : 2 канала
Расположение каналов : Front: L R
Частота : 48,0 КГц
Частота кадров : 31,250 кадров/сек (1536 SPF)
Битовая глубина : 16 бит
Метод сжатия : С потерями
Размер потока : 131 Мбайт (7%)
Заголовок : Дублированный
Язык : Russian
ServiceKind : Complete Main
Default : Да
Forced : Нет

Аудио #2
Идентификатор : 3
Формат : AC-3
Формат/Информация : Audio Coding 3
Идентификатор кодека : A_AC3
Продолжительность : 1 ч. 35 м.
Вид битрейта : Постоянный
Битрейт : 192 Кбит/сек
Каналы : 2 канала
Расположение каналов : Front: L R
Частота : 48,0 КГц
Частота кадров : 31,250 кадров/сек (1536 SPF)
Битовая глубина : 16 бит
Метод сжатия : С потерями
Размер потока : 131 Мбайт (7%)
Заголовок : Многоголосый закадровый, Петербург 5-й канал
Язык : Russian
ServiceKind : Complete Main
Default : Нет
Forced : Нет

Аудио #3
Идентификатор : 4
Формат : AC-3
Формат/Информация : Audio Coding 3
Идентификатор кодека : A_AC3
Продолжительность : 1 ч. 35 м.
Вид битрейта : Постоянный
Битрейт : 96,0 Кбит/сек
Каналы : 1 канал
Расположение каналов : Front: C
Частота : 48,0 КГц
Частота кадров : 31,250 кадров/сек (1536 SPF)
Битовая глубина : 16 бит
Метод сжатия : С потерями
Размер потока : 65,7 Мбайт (4%)
Заголовок : Многоголосый закадровый, НТВ+
Язык : Russian
ServiceKind : Complete Main
Default : Нет
Forced : Нет

Аудио #4
Идентификатор : 5
Формат : AC-3
Формат/Информация : Audio Coding 3
Идентификатор кодека : A_AC3
Продолжительность : 1 ч. 35 м.
Вид битрейта : Постоянный
Битрейт : 96,0 Кбит/сек
Каналы : 1 канал
Расположение каналов : Front: C
Частота : 48,0 КГц
Частота кадров : 31,250 кадров/сек (1536 SPF)
Битовая глубина : 16 бит
Метод сжатия : С потерями
Размер потока : 65,7 Мбайт (4%)
Заголовок : Двуголосый закадровый, НТВ+
Язык : Russian
ServiceKind : Complete Main
Default : Нет
Forced : Нет

Аудио #5
Идентификатор : 6
Формат : AC-3
Формат/Информация : Audio Coding 3
Идентификатор кодека : A_AC3
Продолжительность : 1 ч. 35 м.
Вид битрейта : Постоянный
Битрейт : 192 Кбит/сек
Каналы : 2 канала
Расположение каналов : Front: L R
Частота : 48,0 КГц
Частота кадров : 31,250 кадров/сек (1536 SPF)
Битовая глубина : 16 бит
Метод сжатия : С потерями
Размер потока : 131 Мбайт (7%)
Заголовок : Оригинал
Язык : English
ServiceKind : Complete Main
Default : Нет
Forced : Нет
КУБКИ

СТАЖ

МЕДАЛИ
Награды:87

За активную помощь проекту (3) Лучший по количеству кубков (32) За отличные раздачи и качество (20) За отличные комментарии (5) Почётный форумчанин (1) Верный Сид (25) 1 место в конкурсах/играх (1)

Аватара пользователя
СССР
Pupok_88
Заслуженный Корсар-Вип+
  • Торрент
Для скачивания торрента необходимо зарегистрироваться или войти на трекер.

Вернуться в Классика зарубежного кино (фильмы до 1980 года)



Uptime по данным Ping-Admin.Ru - сервиса мониторинга доступности сайтов
Рейтинг@Mail.ru