logo
Международный русскоязычный
торрент-трекер
Menu

Doublon
Поделиться с друзьями: 
Голосуй за Корсар и получи 400 дублонов
Рейтинг торрент трекеров - UpTracker.ru

За бортом / Overboard (1987, Комедия, мелодрама, BDRip) - KORSAR

Сообщение MZMA » 01 авг 2018, 16:34

Название: За бортом
Оригинальное название: Overboard
Год выпуска: 1987
Выпущено: США, Hawn-Sylbert Movie Company, Metro-Goldwyn-Mayer (MGM), Star Partners
Жанр: Комедия, мелодрама
Режиссер: Гэрри Маршалл
В ролях: Голди Хоун, Курт Расселл, Эдвард Херрманн, Кэтрин Хелмонд, Майкл Дж. Хэгерти, Родди МакДауэлл, Джэред Раштон, Джефри Уайзмен, Брайан Прайс, Джэми Вайлд, Фрэнк Кампанелла, Генри Алан Миллер, Фрэнк Бакстон, Кэрол Уиллиард, Дорис Хесс, Эд Кри, Мона Лайден, Люсинда Кросби, Бинг Расселл, Ричард Стал, Рэй Комбс, Марвин Брэверман, Тим Райт, Том Райт, Стивен Уолкер

О фильме: Джоанна Стейтон — властная, заносчивая и несговорчивая жена самоуверенного владельца яхты. Когда их посудина останавливается для ремонта в небольшом городке, сварливая и взбалмошная Джоанна нанимает плотника Дина Проффитта, чтобы тот смастерил ей новый шкафчик. Но вместо платы за работу Дин получает от ворот поворот — ведь Джоанна никогда ничем не бывает довольна. Но на этот раз ее фирменные выкрутасы заканчиваются тем, что она падает за борт и напрочь теряет память. А Дин тем временем осуществляет бесподобный план мести: он забирает Джоанну к себе, переименовывает ее в Энни и объявляет своей женой и матерью своих четверых непослушных сыновей...



Продолжительность: 01:52:10
Перевод: Профессиональный многоголосый, авторский
Субтитры: Нет

Формат: AVI
Качество: BDRip
Видео: XviD, 1999 Кбит/сек, 704x384, 23,976 кадра/сек
Аудио #1: AC3, 2 ch, 224 Кбит/сек | Русский, авторский (одноголосый закадровый) Алексей Михалев
Аудио #2: AC3, 2 ch, 192 Кбит/сек | Русский, профессиональный (многоголосый закадровый) R5

Релиз от:


Общее
Полное имя : Za.bortom.1987.BDRip.KORSAR.avi
Формат : AVI
Формат/Информация : Audio Video Interleave
Размер файла : 1,90 Гбайт
Продолжительность : 1 ч. 52 м.
Общий поток : 2429 Кбит/сек
Программа кодирования : VirtualDubModRus 1.5.10.2 (build 2542/release)
Библиотека кодирования : VirtualDubMod build 2542/release

Видео
Идентификатор : 0
Формат : MPEG-4 Visual
Профиль формата : Advanced Simple@L5
Настройки формата : BVOP1 / Custom Matrix
Параметр BVOP формата : 1
Параметр QPel формата : Нет
Параметр GMC формата : Без точки перехода
Параметр матрицы формата : Выборочная
Идентификатор кодека : XVID
Идентификатор кодека/Подсказка : XviD
Продолжительность : 1 ч. 52 м.
Битрейт : 1999 Кбит/сек
Ширина : 704 пикселя
Высота : 384 пикселя
Соотношение сторон : 1,85:1
Частота кадров : 23,976 (24000/1001) кадра/сек
Цветовое пространство : YUV
Субдискретизация насыщенности : 4:2:0
Битовая глубина : 8 бит
Тип развёртки : Прогрессивная
Метод сжатия : С потерями
Бит/(Пиксели*Кадры) : 0.308
Размер потока : 1,57 Гбайт (82%)
Библиотека кодирования : XviD 1.2.1 (UTC 2008-12-04)

Аудио #1
Идентификатор : 1
Формат : AC-3
Формат/Информация : Audio Coding 3
Идентификатор кодека : 2000
Продолжительность : 1 ч. 52 м.
Вид битрейта : Постоянный
Битрейт : 224 Кбит/сек
Каналы : 2 канала
Расположение каналов : Front: L R
Частота : 48,0 КГц
Частота кадров : 31,250 кадров/сек (1536 SPF)
Битовая глубина : 16 бит
Метод сжатия : С потерями
Размер потока : 180 Мбайт (9%)
Выравнивание : Разделение по промежуткам
Продолжительность промежутка : 42 мс. (1,00 видеокадр)
Время предзагрузки промежутка : 500 мс.
Заголовок : AVO | А. Михалев

Аудио #2
Идентификатор : 2
Формат : AC-3
Формат/Информация : Audio Coding 3
Идентификатор кодека : 2000
Продолжительность : 1 ч. 52 м.
Вид битрейта : Постоянный
Битрейт : 192 Кбит/сек
Каналы : 2 канала
Расположение каналов : Front: L R
Частота : 48,0 КГц
Частота кадров : 31,250 кадров/сек (1536 SPF)
Битовая глубина : 16 бит
Метод сжатия : С потерями
Размер потока : 154 Мбайт (8%)
Выравнивание : Соединение по промежуткам
Продолжительность промежутка : 42 мс. (1,00 видеокадр)
Время предзагрузки промежутка : 512 мс.
Заголовок : MVO | R5
КУБКИ

СТАЖ

МЕДАЛИ
Награды:78

За помощь проекту (3) Лучший по количеству кубков (6) За отличные раздачи и качество (44) За подробное оформление раздач (11) Верный Сид (12)

Аватара пользователя
СССР
MZMA
Главный Модератор-Корсар
Раздачи группы KORSAR разрешено перезаливать спустя сутки после публикации
  • Торрент
Для скачивания торрента необходимо зарегистрироваться или войти на трекер.

Вернуться в Зарубежное кино (1981-1990)



Uptime по данным Ping-Admin.Ru - сервиса мониторинга доступности сайтов
Рейтинг@Mail.ru Голосуйте за наш сайт в каталоге Rubo.Ru