logo
Международный русскоязычный
торрент-трекер
Menu
Doublon
Поделиться с друзьями: 
Голосуй за Корсар и получи 400 дублонов
Рейтинг торрент трекеров - UpTracker.ru

Ягуар (1986, драма, SATRip-AVC) - KORSAR

Сообщение filbi1976 » 25 июл 2017, 15:20

Ягуар

Год выпуска: 1986
Жанр: драма
Продолжительность: 01:24:28
Субтитры: нет
Режиссер: Себастьян Аларкон
В ролях: Сергей Векслер, Бахром Акрамов, Адель Аль-Хадад, Игорь Верник, Сергей Газаров, Ислам Казиев, Артем Каминский, Маяк Керимов, Владимир Татосов, Нина Тер-Осипян, Янина Хачатурова, Всеволод Шиловский, Сергей Шкаликов

Описание: Герой романа перуанского писателя Марио Варгаса Льосы - курсант военного училища, где обучаются будущие защитники режима Пиночета. Пережив крах философии жестокости, Ягуар (так его прозвали курсанты за твердый и независимый характер) переходит в ряды борцов с существующим режимом.

Файл
Кодек: х264
Качество: SATRip-AVC
Видео: MPEG-4 AVC, 702x330@748x330, 25 fps, 1269 Кбит/с
Звук: AC3, 2 ch, 192 Кбит/с


Общее
Уникальный идентификатор : 223763641705615235803603452441172815398 (0xA8574F4F391B05659D5092D6A57EAE26)
Полное имя : D:\Ягуар_1986-SATRip-AVC.mkv
Формат : Matroska
Версия формата : Version 2
Размер файла : 901 Мбайт
Продолжительность : 1 ч. 24 м.
Общий поток : 1490 Кбит/сек
Дата кодирования : UTC 2017-07-25 13:14:01
Программа кодирования : mkvmerge v5.8.0 ('No Sleep / Pillow') built on Sep 2 2012 15:37:04
Библиотека кодирования : libebml v1.2.3 + libmatroska v1.3.0

Видео
Идентификатор : 1
Формат : AVC
Формат/Информация : Advanced Video Codec
Профиль формата : High@L4.1
Параметр CABAC формата : Да
Параметр ReFrames формата : 15 кадров
Идентификатор кодека : V_MPEG4/ISO/AVC
Продолжительность : 1 ч. 24 м.
Битрейт : 1269 Кбит/сек
Ширина : 702 пикселя
Высота : 330 пикселей
Соотношение сторон : 2,25:1
Соотношение сторон в оригинале : 2,25:1
Режим частоты кадров : Постоянный
Частота кадров : 25,000 кадров/сек
Цветовое пространство : YUV
Субдискретизация насыщенности : 4:2:0
Битовая глубина : 8 бит
Тип развёртки : Прогрессивная
Бит/(Пиксели*Кадры) : 0.219
Размер потока : 767 Мбайт (85%)
Библиотека кодирования : x264 core 148 r2744kMod b97ae06
Настройки программы : cabac=1 / ref=15 / deblock=1:-2:-2 / analyse=0x3:0x133 / me=umh / subme=10 / psy=1 / fade_compensate=0.00 / psy_rd=1.05:0.10 / mixed_ref=1 / me_range=32 / chroma_me=1 / trellis=2 / 8x8dct=1 / cqm=0 / deadzone=21,11 / fast_pskip=1 / chroma_qp_offset=-3 / threads=10 / lookahead_threads=2 / sliced_threads=0 / nr=0 / decimate=1 / interlaced=0 / bluray_compat=0 / constrained_intra=0 / bframes=10 / b_pyramid=2 / b_adapt=2 / b_bias=0 / direct=1 / weightb=1 / open_gop=0 / weightp=2 / keyint=250 / keyint_min=25 / scenecut=40 / intra_refresh=0 / rc=crf / mbtree=0 / crf=18.0000 / qcomp=0.63 / qpmin=0 / qpmax=39 / qpstep=4 / ip_ratio=1.40 / pb_ratio=1.30 / aq=1:1.00
Язык : English
Default : Да
Forced : Нет
Цветовой диапазон : Limited
Основные цвета : BT.601 PAL
Характеристики трансфера : BT.470 System B, BT.470 System G
Коэффициенты матрицы : BT.601

Аудио
Идентификатор : 2
Формат : AC-3
Формат/Информация : Audio Coding 3
Параметр Endianness формата : Big
Идентификатор кодека : A_AC3
Продолжительность : 1 ч. 24 м.
Вид битрейта : Постоянный
Битрейт : 192 Кбит/сек
Каналы : 2 канала
Расположение каналов : Front: L R
Частота : 48,0 КГц
Частота кадров : 31,250 кадров/сек (1536 spf)
Битовая глубина : 16 бит
Метод сжатия : С потерями
Задержка видео : 10 мс.
Размер потока : 116 Мбайт (13%)
Язык : Russian
ServiceKind/String : Complete Main
Default : Да
Forced : Нет

КУБКИ

СТАЖ

МЕДАЛИ
Награды:69

За помощь проекту (1) За отличные раздачи и качество (50) За отличные комментарии (1) Верный Сид (14) За участие в конкурсах/играх (1)

Аватара пользователя
Тортуга
filbi1976
Администратор-Корсар
Раздачи группы KORSAR разрешено перезаливать спустя сутки после публикации
  • Торрент
Для скачивания торрента необходимо зарегистрироваться или войти на трекер.

Сообщение verybigpapa » 25 июл 2017, 15:31

уважаемый filbi1976, большое спасибо. :hi: :respect:
Улыбайтесь, господа! Улыбайтесь!
КУБКИ

СТАЖ

МЕДАЛИ
Награды:40

За помощь проекту (15) Лучший по количеству кубков (9) За отличные комментарии (5) Верный Сид (11)

Аватара пользователя
СССР
verybigpapa
Заслуженный Корсар-Вип

Сообщение kisa1980 » 25 июл 2017, 22:45

filbi1976 Спасибо. :hi:
КУБКИ

СТАЖ

МЕДАЛИ
Награды:53

За помощь проекту (7) Лучший по количеству кубков (3) За отличные раздачи и качество (17) За подробное оформление раздач (4) За отличные комментарии (4) Почётный форумчанин (3) Верный Сид (11) За участие в конкурсах/играх (2)

Аватара пользователя
Тортуга
kisa1980
Главный помощник Администратора-Корсар

Сообщение mister.hats » 25 июл 2017, 22:51

Спасибо Сереж. :10 balov: :-drinks:

Тот кто не с нами, тот против нас
КУБКИ

СТАЖ

МЕДАЛИ
Награды:59

За помощь проекту (7) Лучший по количеству кубков (15) За отличные раздачи и качество (24) За подробное оформление раздач (2) За отличные комментарии (1) Верный Сид (10)

Аватара пользователя
Тортуга
mister.hats
Заслуженный Корсар-Вип

Сообщение filbi1976 » 26 июл 2017, 12:06

Всем пожалуйста! :hi:
КУБКИ

СТАЖ

МЕДАЛИ
Награды:69

За помощь проекту (1) За отличные раздачи и качество (50) За отличные комментарии (1) Верный Сид (14) За участие в конкурсах/играх (1)

Аватара пользователя
Тортуга
filbi1976
Администратор-Корсар

Сообщение Бользен » 01 авг 2017, 08:40

Благодарю.
КУБКИ

СТАЖ

МЕДАЛИ
Награды:5

Лучший по количеству кубков (1) За отличные комментарии (1) Верный Сид (3)

Аватара пользователя
СССР
Бользен
Уважаемый Корсар

Сообщение duke1966 » 14 янв 2018, 18:21

Спасибо за редкость!
СТАЖ

МЕДАЛИ
Награды:1

За отличные комментарии (1)

Аватара пользователя
Russia
duke1966
Опытный Корсар

Сообщение kwazar312 » 06 фев 2018, 09:45

фильм на раздаче,скачивайте пожалуйста.Удачи.
КУБКИ

СТАЖ

МЕДАЛИ
Награды:70

За помощь проекту (7) Лучший по количеству кубков (19) За отличные комментарии (11) Верный Сид (27) За участие в конкурсах/играх (6)

Аватара пользователя
kwazar312
Заслуженный Корсар-Вип

Сообщение kwazar312 » 15 май 2018, 16:03

Фильм на раздаче.Скачивайте.Удачи.
КУБКИ

СТАЖ

МЕДАЛИ
Награды:70

За помощь проекту (7) Лучший по количеству кубков (19) За отличные комментарии (11) Верный Сид (27) За участие в конкурсах/играх (6)

Аватара пользователя
kwazar312
Заслуженный Корсар-Вип

Сообщение Бользен » 17 май 2018, 05:26

На раздаче.
КУБКИ

СТАЖ

МЕДАЛИ
Награды:5

Лучший по количеству кубков (1) За отличные комментарии (1) Верный Сид (3)

Аватара пользователя
СССР
Бользен
Уважаемый Корсар

Сообщение kwazar312 » 04 ноя 2018, 15:12

фильм на раздаче.Скачивайте,удачи.
КУБКИ

СТАЖ

МЕДАЛИ
Награды:70

За помощь проекту (7) Лучший по количеству кубков (19) За отличные комментарии (11) Верный Сид (27) За участие в конкурсах/играх (6)

Аватара пользователя
kwazar312
Заслуженный Корсар-Вип

Сообщение Бользен » 04 ноя 2018, 17:15

На раздаче.
КУБКИ

СТАЖ

МЕДАЛИ
Награды:5

Лучший по количеству кубков (1) За отличные комментарии (1) Верный Сид (3)

Аватара пользователя
СССР
Бользен
Уважаемый Корсар

Сообщение Spartacus » 05 ноя 2018, 01:00

Большое спасибо!!!
КУБКИ

СТАЖ

МЕДАЛИ
Награды:4

Верный Сид (4)

Аватара пользователя
Spartacus
Опытный Корсар

Сообщение Бользен » 05 ноя 2018, 10:15

Пожалуйста :hi: .
КУБКИ

СТАЖ

МЕДАЛИ
Награды:5

Лучший по количеству кубков (1) За отличные комментарии (1) Верный Сид (3)

Аватара пользователя
СССР
Бользен
Уважаемый Корсар


Вернуться в Кино времён СССР



Uptime по данным Ping-Admin.Ru - сервиса мониторинга доступности сайтов
Рейтинг@Mail.ru Голосуйте за наш сайт в каталоге Rubo.Ru