logo
Международный русскоязычный
торрент-трекер
Menu

Doublon
Поделиться с друзьями: 
Голосуй за Корсар и получи 400 дублонов
Рейтинг торрент трекеров - UpTracker.ru

Я, снова я и Ирэн / Me, Myself & Irene (2000, комедия, BDRip-AVC)

Сообщение Pupok_88 » 13 июн 2018, 18:22

Название: Я, снова я и Ирэн
Оригинальное название: Me, Myself & Irene
Год выпуска: 2000
Жанр: Комедия
Режиссер: Бобби Фаррелли , Питер Фаррелли
В ролях: Джим Керри, Рене Зеллвегер, Энтони Андерсон, Монго Браунли, Джерод Миксон, Крис Купер, Майкл Боуман, Ричард Дженкинс, Роберт Форстер, Майк Черроне, Роб Моран, Дэниэл Грин, Тони Кокс, Эндрю Филлипс, Джереми Малик Леггетт, Джастин Чандлер, Зен Геснер, Стив Суини, Трейлор Ховард, Ленни Кларк

Производство: США / 20th Century Fox Film Corporation, Conundrum Entertainment
Продолжительность: 01:56:35
Перевод: Профессиональный (полное дублирование), авторский (одноголосый, закадровый) [С. Визгунов, Ю. Живов]

Описание: Чарли — добрый и отзывчивый патрульный полицейский. Но вот беда — он страдает раздвоением личности. Когда кто-то пытается надавить на него, появляется Хэнк — второе «Я» Чарли. Это грубый, жестокий, агрессивный и невоспитанный тип, любитель выпивки и сквернословия.
Жизнь Чарли превращается в сущий кошмар, ибо Хэнк всегда появляется не вовремя, и постоянно портит ему жизнь. Только в одном их мнения совпадают, — они оба влюбляются в Ирен, но кого из них выберет капризная красавица?




Качество: BDRip-AVC
Формат: MKV
Видео: x264; High@L4.0; 1112x600 (1.853:1); ~2931 kbps; 23.976 fps; 0.180 b/px
Аудио#1: Русский (Дубляж); AC3; CBR 384 kbps; 6 ch; 48 kHz
Аудио#2: Русский (AVO; С. Визгунов); AC3; CBR 448 kbps; 6 ch; 48 kHz
Аудио#3: Русский (AVO; Ю. Живов); AC3; CBR 128 kbps; 2 ch; 48 kHz
Аудио#4: Английский; AC3; CBR 448 kbps; 6 ch; 48 kHz
Аудио#5: Английский (Комментарии от режиссеров фильма Bobby and Peter Farrelly); AC3; CBR 224 kbps; 2 ch; 48 kHz
Навигация по главам: есть (20 глав)
Субтитры: русские, английские, французские, итальянские, венгерские, польские, чешские, турецкие, голландские, исландские, португальские, греческие, латышские, литовские, болгарские, словенские, хорватские, румынские

video.avs: 1112x600, 24000/1001 fps, 167723 frames
y4m [info]: 1112x600p 1:1 @ 24000/1001 fps (cfr)
x264 [info]: using SAR=1/1
x264 [info]: using cpu capabilities: MMX2 SSE2Fast SSSE3 FastShuffle SSE4.2
x264 [info]: profile High, level 4.0
x264 [info]: frame I:1235  Avg QP:19.00  size: 78783  PSNR Mean Y:45.42 U:47.28 V:48.71 Avg:46.00 Global:45.54
x264 [info]: frame P:35534 Avg QP:20.38  size: 29919  PSNR Mean Y:44.10 U:47.13 V:48.77 Avg:44.83 Global:44.15
x264 [info]: frame B:130954 Avg QP:22.46  size: 10713  PSNR Mean Y:43.03 U:46.15 V:48.17 Avg:43.85 Global:43.44
x264 [info]: consecutive B-frames:  0.9%  1.7%  5.9% 26.3% 21.4% 29.9%  6.9%  5.1%  1.9%
x264 [info]: mb I  I16..4:  4.1% 83.1% 12.8%
x264 [info]: mb P  I16..4:  0.5%  9.2%  1.2%  P16..4: 38.1% 28.3% 15.6%  0.0%  0.0%    skip: 7.1%
x264 [info]: mb B  I16..4:  0.0%  0.8%  0.2%  B16..8: 42.4% 11.8%  3.1%  direct: 6.3%  skip:35.4%  L0:42.5% L1:44.4% BI:13.1%
x264 [info]: 8x8 transform intra:83.7% inter:68.3%
x264 [info]: direct mvs  spatial:100.0% temporal:0.0%
x264 [info]: coded y,uvDC,uvAC intra: 91.9% 89.4% 65.7% inter: 28.4% 25.0% 7.0%
x264 [info]: i16 v,h,dc,p: 53% 16%  4% 27%
x264 [info]: i8 v,h,dc,ddl,ddr,vr,hd,vl,hu: 12% 12%  4%  9% 13% 13% 14% 11% 12%
x264 [info]: i4 v,h,dc,ddl,ddr,vr,hd,vl,hu: 11%  9%  2%  8% 16% 16% 15% 11% 12%
x264 [info]: i8c dc,h,v,p: 42% 23% 18% 18%
x264 [info]: Weighted P-Frames: Y:5.7%
x264 [info]: ref P L0: 43.2% 14.9% 17.6%  6.0%  5.3%  3.7%  3.5%  1.9%  1.9%  1.7%  0.2%  0.0%
x264 [info]: ref B L0: 71.0% 12.0%  6.4%  3.4%  2.5%  2.1%  1.7%  0.7%  0.3%
x264 [info]: ref B L1: 92.0%  8.0%
x264 [info]: SSIM Mean Y:0.9777435 (16.525db)
x264 [info]: PSNR Mean Y:43.274 U:46.368 V:48.302 Avg:44.070 Global:43.596 kb/s:2931.47
[23:24:29,74 03.10.2010] ======== encoded 167723 frames, 5.88 fps, 2931.47 kb/s ========

General
Unique ID : 192549583658748095129567452458354195233 (0x90DBB36DD6E9B270A5C547BE91E3BB21)
Complete name : D:\AVC Rips\Me.Myself.and.Irene.2000.BDRip-AVC.3xRus.Eng.Comments.Subs.tRuAVC.mkv
Format : Matroska
Format version : Version 2
File size : 3.88 GiB
Duration : 1h 56mn
Overall bit rate : 4 759 Kbps
Encoded date : UTC 2012-03-07 16:45:36
Writing application : mkvmerge v4.0.0 ('The Stars were mine') built on Jun 5 2010 17:44:09
Writing library : libebml v1.0.0 + libmatroska v1.0.0
Video
ID : 1
Format : AVC
Format/Info : Advanced Video Codec
Format profile : High@L4.0
Format settings, CABAC : Yes
Format settings, ReFrames : 10 frames
Codec ID : V_MPEG4/ISO/AVC
Duration : 1h 56mn
Bit rate : 2 840 Kbps
Width : 1 112 pixels
Height : 600 pixels
Display aspect ratio : 1.853
Frame rate : 23.976 fps
Color space : YUV
Chroma subsampling : 4:2:0
Bit depth : 8 bits
Scan type : Progressive
Bits/(Pixel*Frame) : 0.178
Stream size : 2.31 GiB (60%)
Title : Я, снова я и Ирэн / Me, Myself & Irene - by Juicy_J - x264; High@L4.0; 1112x600 (1.853:1); ~2931 kbps; 23.976 fps; 0.180 b/px
Writing library : x264 core 105 r1724 b02df7b
Encoding settings : cabac=1 / ref=10 / deblock=1:-3:-3 / analyse=0x3:0x113 / me=umh / subme=10 / psy=1 / psy_rd=1.15:0.00 / mixed_ref=1 / me_range=32 / chroma_me=1 / trellis=2 / 8x8dct=1 / cqm=0 / deadzone=21,11 / fast_pskip=1 / chroma_qp_offset=-2 / threads=12 / sliced_threads=0 / nr=0 / decimate=1 / interlaced=0 / constrained_intra=0 / bframes=8 / b_pyramid=2 / b_adapt=2 / b_bias=0 / direct=3 / weightb=1 / open_gop=0 / weightp=2 / keyint=250 / keyint_min=23 / scenecut=40 / intra_refresh=0 / rc=crf / mbtree=0 / crf=19.0 / qcomp=0.65 / qpmin=10 / qpmax=51 / qpstep=4 / ip_ratio=1.40 / pb_ratio=1.30 / aq=1:1.00
Language : English
Default : Yes
Forced : No
Matrix coefficients : BT.709-5, BT.1361, IEC 61966-2-4 709, SMPTE RP177
Audio #1
ID : 2
Format : AC-3
Format/Info : Audio Coding 3
Mode extension : CM (complete main)
Codec ID : A_AC3
Duration : 1h 56mn
Bit rate mode : Constant
Bit rate : 384 Kbps
Channel(s) : 6 channels
Channel positions : Front: L C R, Side: L R, LFE
Sampling rate : 48.0 KHz
Bit depth : 16 bits
Compression mode : Lossy
Stream size : 320 MiB (8%)
Title : Русский (Дубляж); AC3; CBR 384 kbps; 6 ch; 48 kHz
Language : Russian
Default : Yes
Forced : No
Audio #2
ID : 3
Format : AC-3
Format/Info : Audio Coding 3
Mode extension : CM (complete main)
Codec ID : A_AC3
Duration : 1h 56mn
Bit rate mode : Constant
Bit rate : 448 Kbps
Channel(s) : 6 channels
Channel positions : Front: L C R, Side: L R, LFE
Sampling rate : 48.0 KHz
Bit depth : 16 bits
Compression mode : Lossy
Stream size : 374 MiB (9%)
Title : Русский (AVO; С. Визгунов); AC3; CBR 448 kbps; 6 ch; 48 kHz
Language : Russian
Default : No
Forced : No
Audio #3
ID : 4
Format : AC-3
Format/Info : Audio Coding 3
Mode extension : CM (complete main)
Codec ID : A_AC3
Duration : 1h 56mn
Bit rate mode : Constant
Bit rate : 128 Kbps
Channel(s) : 2 channels
Channel positions : Front: L R
Sampling rate : 48.0 KHz
Bit depth : 16 bits
Compression mode : Lossy
Stream size : 107 MiB (3%)
Title : Русский (AVO; Ю. Живов); AC3; CBR 128 kbps; 2 ch; 48 kHz
Language : Russian
Default : No
Forced : No
Audio #4
ID : 5
Format : AC-3
Format/Info : Audio Coding 3
Mode extension : CM (complete main)
Codec ID : A_AC3
Duration : 1h 56mn
Bit rate mode : Constant
Bit rate : 192 Kbps
Channel(s) : 2 channels
Channel positions : Front: L R
Sampling rate : 48.0 KHz
Bit depth : 16 bits
Compression mode : Lossy
Delay relative to video : 2s 0ms
Stream size : 160 MiB (4%)
Title : Русский (AVO; А. Гаврилов); AC3; CBR 192 kbps; 2 ch; 48 kHz
Language : Russian
Default : No
Forced : No
Audio #5
ID : 6
Format : AC-3
Format/Info : Audio Coding 3
Mode extension : CM (complete main)
Codec ID : A_AC3
Duration : 1h 56mn
Bit rate mode : Constant
Bit rate : 448 Kbps
Channel(s) : 6 channels
Channel positions : Front: L C R, Side: L R, LFE
Sampling rate : 48.0 KHz
Bit depth : 16 bits
Compression mode : Lossy
Stream size : 374 MiB (9%)
Title : Английский; AC3; CBR 448 kbps; 6 ch; 48 kHz
Language : English
Default : No
Forced : No
Audio #6
ID : 7
Format : AC-3
Format/Info : Audio Coding 3
Mode extension : CM (complete main)
Codec ID : A_AC3
Duration : 1h 56mn
Bit rate mode : Constant
Bit rate : 224 Kbps
Channel(s) : 2 channels
Channel positions : Front: L R
Sampling rate : 48.0 KHz
Bit depth : 16 bits
Compression mode : Lossy
Stream size : 187 MiB (5%)
Title : Английский (Комментарии от режиссеров фильма Bobby and Peter Farrelly); AC3; CBR 224 kbps; 2 ch; 48 kHz
Language : English
Default : No
Forced : No
Text #1
ID : 8
Format : UTF-8
Codec ID : S_TEXT/UTF8
Codec ID/Info : UTF-8 Plain Text
Title : Русские
Language : Russian
Default : No
Forced : No
Text #2
ID : 9
Format : UTF-8
Codec ID : S_TEXT/UTF8
Codec ID/Info : UTF-8 Plain Text
Title : Английские
Language : English
Default : No
Forced : No
Text #3
ID : 10
Format : UTF-8
Codec ID : S_TEXT/UTF8
Codec ID/Info : UTF-8 Plain Text
Title : Французские
Language : French
Default : No
Forced : No
Text #4
ID : 11
Format : UTF-8
Codec ID : S_TEXT/UTF8
Codec ID/Info : UTF-8 Plain Text
Title : Итальянские
Language : Italian
Default : No
Forced : No
Text #5
ID : 12
Format : UTF-8
Codec ID : S_TEXT/UTF8
Codec ID/Info : UTF-8 Plain Text
Title : Венгерские
Language : Hungarian
Default : No
Forced : No
Text #6
ID : 13
Format : UTF-8
Codec ID : S_TEXT/UTF8
Codec ID/Info : UTF-8 Plain Text
Title : Польские
Language : Polish
Default : No
Forced : No
Text #7
ID : 14
Format : UTF-8
Codec ID : S_TEXT/UTF8
Codec ID/Info : UTF-8 Plain Text
Title : Чешские
Language : Czech
Default : No
Forced : No
Text #8
ID : 15
Format : UTF-8
Codec ID : S_TEXT/UTF8
Codec ID/Info : UTF-8 Plain Text
Title : Турецкие
Language : Turkish
Default : No
Forced : No
Text #9
ID : 16
Format : UTF-8
Codec ID : S_TEXT/UTF8
Codec ID/Info : UTF-8 Plain Text
Title : Голландские
Language : Dutch
Default : No
Forced : No
Text #10
ID : 17
Format : UTF-8
Codec ID : S_TEXT/UTF8
Codec ID/Info : UTF-8 Plain Text
Title : Исландские
Language : Icelandic
Default : No
Forced : No
Text #11
ID : 18
Format : UTF-8
Codec ID : S_TEXT/UTF8
Codec ID/Info : UTF-8 Plain Text
Title : Португальские
Language : Portuguese
Default : No
Forced : No
Text #12
ID : 19
Format : UTF-8
Codec ID : S_TEXT/UTF8
Codec ID/Info : UTF-8 Plain Text
Title : Греческие
Language : Greek
Default : No
Forced : No
Text #13
ID : 20
Format : UTF-8
Codec ID : S_TEXT/UTF8
Codec ID/Info : UTF-8 Plain Text
Title : Латышские
Language : Latvian
Default : No
Forced : No
Text #14
ID : 21
Format : UTF-8
Codec ID : S_TEXT/UTF8
Codec ID/Info : UTF-8 Plain Text
Title : Литовские
Language : Lithuanian
Default : No
Forced : No
Text #15
ID : 22
Format : UTF-8
Codec ID : S_TEXT/UTF8
Codec ID/Info : UTF-8 Plain Text
Title : Болгарские
Language : Bulgarian
Default : No
Forced : No
Text #16
ID : 23
Format : UTF-8
Codec ID : S_TEXT/UTF8
Codec ID/Info : UTF-8 Plain Text
Title : Словенские
Language : Slovenian
Default : No
Forced : No
Text #17
ID : 24
Format : UTF-8
Codec ID : S_TEXT/UTF8
Codec ID/Info : UTF-8 Plain Text
Title : Хорватские
Language : Croatian
Default : No
Forced : No
Text #18
ID : 25
Format : UTF-8
Codec ID : S_TEXT/UTF8
Codec ID/Info : UTF-8 Plain Text
Title : Румынские
Language : Romanian
Default : No
Forced : No
Menu
00:00:00.000 : en:Main Titles
00:02:00.286 : en:In The Beginning
00:09:52.091 : en:Charlie's Worst Fear
00:13:15.211 : en:Growing Up
00:17:47.149 : en:Hank
00:24:58.955 : en:Irene
00:34:31.944 : en:The E.P.A
00:36:59.216 : en:Danger
00:41:06.547 : en:Tango Man
00:49:32.094 : en:Manhunt
00:54:43.571 : en:No Money
00:59:16.261 : en:Table Manners
01:05:27.423 : en:Traveling Companions
01:14:42.019 : en:Problem Control
01:19:36.313 : en:The Boys Get Involved
01:25:08.895 : en:Irene Confesses
01:30:57.702 : en:Charlie Gets Mad
01:40:31.942 : en:Saving Irene
01:48:55.904 : en:End Titles
01:55:54.864 : en:Pop's Thumb
КУБКИ

СТАЖ

МЕДАЛИ
Награды:32

За помощь проекту (1) Лучший по количеству кубков (8) За отличные раздачи и качество (12) Верный Сид (10) 1 место в конкурсах/играх (1)

Аватара пользователя
СССР
Pupok_88
Заслуженный Корсар-Вип+
  • Торрент
Для скачивания торрента необходимо зарегистрироваться или войти на трекер.

Вернуться в Зарубежное кино (1991-2000)



Uptime по данным Ping-Admin.Ru - сервиса мониторинга доступности сайтов
Рейтинг@Mail.ru Голосуйте за наш сайт в каталоге Rubo.Ru