logo
Международный русскоязычный
торрент-трекер
Menu
Магазин-KorsaRDoublon
Поделиться с друзьями: 
Голосуй за Корсар и получай дублоны
Рейтинг торрент трекеров - UpTracker.ru

Я люблю своего мужа / Серии: 1-4 из 4 (2016,мелодрама,SATRip-AVC)

Сообщение aleksan55 » 01 янв 2017, 15:30

Год выпуска: 2016
Производство:Украина, Star Media
Жанр: мелодрама
Продолжительность: 00:50:00
Субтитры: украинские,вшитые

Режиссёр: Дмитрий Петрунь

В ролях:Екатерина Климова, Иван Оганесян, Дмитрий Суржиков, Ада Роговцева, Владимир Горянский, Алина Гроссу, Денис Мартынов

Описание:Сергей считает, что за 15 лет брака знает все о своей жене Ольге. Она хорошая хозяйка и мать, но с годами стала скучной, неинтересной, «прочитанной книгой». Сергей регистрируется на сайте знакомств и заводит виртуальный роман с незнакомкой по имени Эмма. Стремительные виртуальные отношения становятся реальными. Женщина умна и очень соблазнительна. Правда прячет лицо и предпочитает встречаться в темноте, но это еще больше распаляет Сергея. В отличие от опостылевшей однообразной Ольги, Эмма – загадочна и притягательна...





Качество: SATRip-AVC
Формат: MKV
Видео кодек: H.264
Аудио кодек: AC3
Видео: MPEG4 Video (H264), 720x400, 25fps,1400 Kbps,bit/pixel 0.194
Аудио: AC3 48000Hz, stereo, 192kbps,2 ch

Общее
Уникальный идентификатор : 182921827588797740206574832642042160894 (0x899D7667F12D083696A247902030E6FE)
Полное имя : F:\Я люблю своего мужа\01 серия_Я люблю своего мужа_rip by_Aleksan55.mkv
Формат : Matroska
Версия формата : Version 2
Размер файла : 580 Мбайт
Продолжительность : 50 м.
Общий поток : 1594 Кбит/сек
Дата кодирования : UTC 2016-12-31 17:34:58
Программа кодирования : mkvmerge v7.8.0 ('River Man') 32bit built on Apr 3 2015 12:11:22
Библиотека кодирования : libebml v1.3.1 + libmatroska v1.4.2

Видео
Идентификатор : 1
Формат : AVC
Формат/Информация : Advanced Video Codec
Профиль формата : High@L3.1
Параметр CABAC формата : Да
Параметр ReFrames формата : 14 кадров
Идентификатор кодека : V_MPEG4/ISO/AVC
Продолжительность : 50 м.
Битрейт : 1400 Кбит/сек
Ширина : 720 пикселей
Высота : 400 пикселей
Соотношение сторон : 16:9
Режим частоты кадров : Постоянный
Частота кадров : 25,000 кадров/сек
Цветовое пространство : YUV
Субдискретизация насыщенности : 4:2:0
Битовая глубина : 8 бит
Тип развёртки : Прогрессивная
Бит/(Пиксели*Кадры) : 0.194
Размер потока : 499 Мбайт (86%)
Библиотека кодирования : x264 core 148 r2638 7599210
Настройки программы : cabac=1 / ref=14 / deblock=1:-1:-1 / analyse=0x3:0x133 / me=umh / subme=9 / psy=1 / psy_rd=1.00:0.15 / mixed_ref=0 / me_range=32 / chroma_me=1 / trellis=2 / 8x8dct=1 / cqm=0 / deadzone=21,11 / fast_pskip=0 / chroma_qp_offset=-3 / threads=3 / lookahead_threads=3 / sliced_threads=0 / nr=0 / decimate=0 / interlaced=0 / bluray_compat=0 / constrained_intra=0 / bframes=14 / b_pyramid=2 / b_adapt=1 / b_bias=0 / direct=3 / weightb=1 / open_gop=0 / weightp=2 / keyint=250 / keyint_min=25 / scenecut=40 / intra_refresh=0 / rc_lookahead=60 / rc=2pass / mbtree=1 / bitrate=1400 / ratetol=1.0 / qcomp=0.85 / qpmin=0 / qpmax=40 / qpstep=4 / cplxblur=20.0 / qblur=0.5 / ip_ratio=1.40 / aq=1:1.20
Default : Да
Forced : Нет
Цветовой диапазон : Limited
Основные цвета : BT.601 PAL
Характеристики трансфера : BT.470 System B, BT.470 System G
Коэффициенты матрицы : BT.601

Аудио
Идентификатор : 2
Формат : AC-3
Формат/Информация : Audio Coding 3
Расширение режима : CM (complete main)
Параметр Endianness формата : Big
Идентификатор кодека : A_AC3
Продолжительность : 50 м.
Вид битрейта : Постоянный
Битрейт : 192 Кбит/сек
Каналы : 2 канала
Расположение каналов : Front: L R
Частота : 48,0 КГц
Метод сжатия : С потерями
Размер потока : 69,9 Мбайт (12%)
Default : Да
Forced : Нет

Аватара пользователя
aleksan55
Уважаемый Релизёр-Корсар
 
 

Награды: 11
За помощь проекту (1) Лучший по количеству кубков (4) За отличные раздачи (4) Верный Сид (2)
  • Торрент
Для скачивания торрента необходимо зарегистрироваться или войти на трекер.

Вернуться в Русские сериалы



мониторинг сайтов