logo
Международный русскоязычный
торрент-трекер
Menu
Поделиться с друзьями: 
Голосуй за Корсар и получи 500 дублонов
Рейтинг торрент трекеров - UpTracker.ru

Взрыв из прошлого / Blast from the Past (1999, фантастика, мелодрама, комедия, WEB-DL 1080p) | Полная версия | Open Matte

Сообщение kisa1980 » 19 ноя 2019, 21:41

Название: Взрыв из прошлого
Оригинальное название: Blast from the Past
Год выхода: 1999
Жанр: Фантастика, мелодрама, комедия
Режиссер: Хью Уилсон
В ролях: Брендан Фрейзер, Алисия Сильверстоун, Кристофер Уокен, Сисси Спейсек, Дэйв Фоли, Джои Злотник, Дэйл Рауль, Хейден Тэнк, Дуглас Смит

О фильме: Адам Уэббер родился нормальным ребенком, но, по глупому недоразумению, провел 35 лет в бомбоубежище вместе со своими родителями. Наивный и искренний, он впервые оказывается среди людей в бушующем Лос-Анджелесе 90-х! И кто знает — может, он еще успеет наверстать упущенное?!



Страна: США
Студия: New Line Cinema
Продолжительность: 01:52:06
Перевод: Дублированный, профессиональный многоголосый, авторский одноголосый

Качество: WEB-DL 1080p
Формат: Matroska
Видео: 1920x1080, 23.976 fps, MPEG-4 AVC, 12.1 Mb/s
Аудио 1: Russian: 48 kHz, AC3, 6 ch, ~448 kbps avg - DUB, Мосфильм (со вставками MVO)
Аудио 2: Russian: 48 kHz, AC3, 2 ch, ~192 kbps avg - DUB, SDI Media
Аудио 3: Russian: 48 kHz, AC3, 6 ch, ~640 kbps avg - MVO, Сонотек
Аудио 4: Russian: 48 kHz, AC3, 6 ch, ~640 kbps avg - AVO, Живов
Аудио 5: Russian: 48 kHz, AC3, 6 ch, ~448 kbps avg - AVO, Гаврилов
Аудио 6: English: 48 kHz, EAC3, 6 ch, ~640 kbps avg - Оригинал
Субтитры: Русские (full), английские (full)




General
Unique ID : 230455466676774115501584676858918226199 (0xAD601BC0E46FDEB4A6C0D0D2E2CA4917)
Complete name : D:Blast.from.the.Past.1999.Open.Matte.1080p.WEB-DL.mkv
Format : Matroska
Format version : Version 4
File size : 11.8 GiB
Duration : 1 h 52 min
Overall bit rate mode : Variable
Overall bit rate : 15.1 Mb/s
Movie name : Blast.from.the.Past.1999.Open.Matte.1080p.WEB-DL.DD+5.1.H.264-spartanec163
Encoded date : UTC 2019-11-19 15:01:56
Writing application : mkvmerge v8.3.0 ('Over the Horizon') 32bit
Writing library : libebml v1.3.1 + libmatroska v1.4.2

Video
ID : 1
Format : AVC
Format/Info : Advanced Video Codec
Format profile : High@L4
Format settings : CABAC / 4 Ref Frames
Format settings, CABAC : Yes
Format settings, Reference : 4 frames
Codec ID : V_MPEG4/ISO/AVC
Duration : 1 h 52 min
Bit rate mode : Variable
Bit rate : 12.1 Mb/s
Maximum bit rate : 15.0 Mb/s
Width : 1 920 pixels
Height : 1 080 pixels
Display aspect ratio : 16:9
Frame rate mode : Constant
Frame rate : 23.976 (24000/1001) FPS
Color space : YUV
Chroma subsampling : 4:2:0
Bit depth : 8 bits
Scan type : Progressive
Bits/(Pixel*Frame) : 0.242
Stream size : 9.43 GiB (80%)
Title : WEB-DL 1080p (Amazon)
Language : English
Default : Yes
Forced : No
Color range : Limited
Color primaries : BT.709
Transfer characteristics : BT.709
Matrix coefficients : BT.709

Audio #1
ID : 2
Format : AC-3
Format/Info : Audio Coding 3
Commercial name : Dolby Digital
Codec ID : A_AC3
Duration : 1 h 52 min
Bit rate mode : Constant
Bit rate : 448 kb/s
Channel(s) : 6 channels
Channel layout : L R C LFE Ls Rs
Sampling rate : 48.0 kHz
Frame rate : 31.250 FPS (1536 SPF)
Bit depth : 16 bits
Compression mode : Lossy
Stream size : 359 MiB (3%)
Title : DUB
Language : Russian
Service kind : Complete Main
Default : Yes
Forced : No

Audio #2
ID : 3
Format : AC-3
Format/Info : Audio Coding 3
Commercial name : Dolby Digital
Codec ID : A_AC3
Duration : 1 h 52 min
Bit rate mode : Constant
Bit rate : 192 kb/s
Channel(s) : 2 channels
Channel layout : L R
Sampling rate : 48.0 kHz
Frame rate : 31.250 FPS (1536 SPF)
Bit depth : 16 bits
Compression mode : Lossy
Stream size : 154 MiB (1%)
Title : SDI Media DUB
Language : Russian
Service kind : Complete Main
Default : No
Forced : No

Audio #3
ID : 4
Format : AC-3
Format/Info : Audio Coding 3
Commercial name : Dolby Digital
Codec ID : A_AC3
Duration : 1 h 52 min
Bit rate mode : Constant
Bit rate : 640 kb/s
Channel(s) : 6 channels
Channel layout : L R C LFE Ls Rs
Sampling rate : 48.0 kHz
Frame rate : 31.250 FPS (1536 SPF)
Bit depth : 16 bits
Compression mode : Lossy
Stream size : 513 MiB (4%)
Title : MVO (Sonotek)
Language : Russian
Service kind : Complete Main
Default : No
Forced : No

Audio #4
ID : 5
Format : AC-3
Format/Info : Audio Coding 3
Commercial name : Dolby Digital
Codec ID : A_AC3
Duration : 1 h 52 min
Bit rate mode : Constant
Bit rate : 640 kb/s
Channel(s) : 6 channels
Channel layout : L R C LFE Ls Rs
Sampling rate : 48.0 kHz
Frame rate : 31.250 FPS (1536 SPF)
Bit depth : 16 bits
Compression mode : Lossy
Stream size : 513 MiB (4%)
Title : AVO (Живов)
Language : Russian
Service kind : Complete Main
Default : No
Forced : No

Audio #5
ID : 6
Format : AC-3
Format/Info : Audio Coding 3
Commercial name : Dolby Digital
Codec ID : A_AC3
Duration : 1 h 52 min
Bit rate mode : Constant
Bit rate : 448 kb/s
Channel(s) : 6 channels
Channel layout : L R C LFE Ls Rs
Sampling rate : 48.0 kHz
Frame rate : 31.250 FPS (1536 SPF)
Bit depth : 16 bits
Compression mode : Lossy
Stream size : 359 MiB (3%)
Title : AVO (Гаврилов)
Language : Russian
Service kind : Complete Main
Default : No
Forced : No

Audio #6
ID : 7
Format : E-AC-3
Format/Info : Enhanced AC-3
Commercial name : Dolby Digital Plus
Codec ID : A_EAC3
Duration : 1 h 52 min
Bit rate mode : Constant
Bit rate : 640 kb/s
Channel(s) : 6 channels
Channel layout : L R C LFE Ls Rs
Sampling rate : 48.0 kHz
Frame rate : 31.250 FPS (1536 SPF)
Compression mode : Lossy
Stream size : 513 MiB (4%)
Language : English
Service kind : Complete Main
Default : No
Forced : No

Text #1
ID : 8
Format : UTF-8
Codec ID : S_TEXT/UTF8
Codec ID/Info : UTF-8 Plain Text
Duration : 1 h 46 min
Bit rate : 105 b/s
Count of elements : 1338
Stream size : 82.5 KiB (0%)
Language : Russian
Default : No
Forced : No

Text #2
ID : 9
Format : UTF-8
Codec ID : S_TEXT/UTF8
Codec ID/Info : UTF-8 Plain Text
Duration : 1 h 45 min
Bit rate : 69 b/s
Count of elements : 1542
Stream size : 53.5 KiB (0%)
Language : English
Default : No
Forced : No
КУБКИ

СТАЖ

МЕДАЛИ
Награды:119

За активную помощь проекту (12) Лучший по количеству кубков (4) За отличные раздачи и качество (45) За подробное оформление раздач (10) За отличные комментарии (11) Почётный форумчанин (4) Верный Сид (30) За участие в конкурсах/играх (2)

Аватара пользователя
Тортуга
kisa1980
Главный помощник Администратора-Корсар
  • Торрент
Для скачивания торрента необходимо зарегистрироваться или войти на трекер.

Сообщение kwazar312 » 19 ноя 2019, 23:14

- Ева, в твою жизнь пришел мужчина, который был самым добрым, самым вежливым и безумно богатым! — А я сдала его в психушку…
Холодная война. Время когда весь мир висел буквально на волоске и одно неосторожно брошенное слово могло привести к гибели миллионов если не миллиардов живых существ. И если люди в Советской России ходили по улицам с мрачной решимостью, то обитатели США строили всевозможные подземные убежища, опасаясь падения бомб. Кэлвин Уэббер, так же построил подземное убежище, в котором было и электричество и еда и воздухозаборник и в общем-то в этом месте можно было жить долгие годы. Кэлвин, как в воду глядел. О нет, на Америку не упали бомбы, ведь в таком случае мы бы с вами тут не сидели. Все куда как проще. На дом четы Уэбберов упал истребитель. Ага, прям как в анекдоте вот только ни Кэлвину Уэбберу, ни его жене Хелен, было не до смеха, ибо они решили что русские все-таки сбросили бомбы. И естественно они спрятались в своем бомбоубежище, в котором провели долгие тридцать пять лет и даже сумели воспитать сына. Но что будет когда бункер наконец откроется и семья Уэббер выйдет на свет божий? Смогут ли они жить в этом новом мире, в котором на каждом шагу «мутанты», машины не ездят а прыгают, а библиотеки наполнены «отравляющим газом?» Смотрите и узнаете.
Уважаемый kisa1980,спасибо за раздачу этого веселенького фильма.
:hi: :you: :good: :respect:
КУБКИ

СТАЖ

МЕДАЛИ
Награды:148

Пожизненный VIP+ (3) За активную помощь проекту (14) Лучший по количеству кубков (46) За отличные раздачи и качество (3) За отличные комментарии (26) Почётный форумчанин (1) Верный Сид (49) За участие в конкурсах/играх (6)

Аватара пользователя
kwazar312
Заслуженный Корсар-VIP+

Сообщение filbi1976 » 20 ноя 2019, 17:55

Отличный фильм! :10 balov:
Серёга, спасибо! :-drinks:
The Show Must Go On
Посмотреть товар в профиле пользователя

Нажмите на изображение, чтобы увидеть в полный размер  
1 шт.
Нажмите на изображение, чтобы увидеть в полный размер  
1 шт.
Нажмите на изображение, чтобы увидеть в полный размер  
1 шт.
Нажмите на изображение, чтобы увидеть в полный размер  
1 шт.
Нажмите на изображение, чтобы увидеть в полный размер  
1 шт.
Нажмите на изображение, чтобы увидеть в полный размер  
1 шт.
Нажмите на изображение, чтобы увидеть в полный размер  
1 шт.
Нажмите на изображение, чтобы увидеть в полный размер  
1 шт.
Нажмите на изображение, чтобы увидеть в полный размер  
1 шт.
Нажмите на изображение, чтобы увидеть в полный размер  
1 шт.
Нажмите на изображение, чтобы увидеть в полный размер  
1 шт.
Нажмите на изображение, чтобы увидеть в полный размер  
1 шт.
Нажмите на изображение, чтобы увидеть в полный размер  
1 шт.
Нажмите на изображение, чтобы увидеть в полный размер  
1 шт.
Нажмите на изображение, чтобы увидеть в полный размер  
1 шт.
КУБКИ

СТАЖ

МЕДАЛИ
Награды:174

За активную помощь проекту (5) Лучший по количеству кубков (1) За отличные раздачи и качество (114) За подробное оформление раздач (4) За отличные комментарии (8) Почётный форумчанин (3) Верный Сид (35) За участие в конкурсах/играх (2) 3 место в конкурсах/играх (1)

Аватара пользователя
Тортуга
filbi1976
Администратор-Корсар


Вернуться в Зарубежное кино (1991-2000 / HD Video)



Рейтинг@Mail.ru