logo
Международный русскоязычный
торрент-трекер
Menu

Магазин-KorsaRDoublon

Поделиться с друзьями: 
Голосуй и получи дублоны
Рейтинг торрент трекеров - UpTracker.ru

Вторая книга джунглей: Маугли и Балу/ The Second Jungle Book: Mowgli & Baloo (1997, Приключения, DVDRip-AVC)

Сообщение Korsar » 05 янв 2017, 20:33

Вторая книга джунглей: Маугли и Балу / The Second Jungle Book: Mowgli & Baloo

Страна: США
Жанр: Приключения
Год выпуска: 1997
Продолжительность: 01:29:32

Перевод: Профессиональный (многоголосый закадровый) Первый канал
Cубтитры: нет
Оригинальная аудиодорожка: английский

Режиссер: Дункан МакЛахлан / Dee McLachlan

В ролях: Гульшан Гровер, Джеймс Уильямс, Билл Кэмпбелл, Родди МакДауэлл, Дэвид Пол Френсис, Дирк Эштон, Корнелия Хэйес О’Херлихи, Б.Дж. Хогг, Эми Роббинс, Хэл Фоулер

Описание: Маугли и его друзья возвращается! Вы вновь можете отправиться в дикие джунгли в гости к доброму Балу, грациозной Багире, мудрому Ка, коварным Бандерлогам и сотне пушистых, рычащих и веселых друзей Маугли.

На этот раз ему придется одолеть множество препятствий, чтобы избежать ловушек коварных циркачей, происков своих родственников и громыхающих поездов с туристами. Однако все закончится хорошо, ведь верней друзья всегда придут на помощь в трудную минуту.

Сэмпл: http://multi-up.com/950865

Качество видео: DVDRip-AVC
Формат видео: MKV

Видео: 720x426@1024x448 (2:35:1), 25 fps, H264 ~ 2 047 kbps avg, 0.267 bit/pixel
Аудио: 48 kHz, AC3 Dolby Digital, 2/0 (L,R) ch, ~192 kbps | MVO
Аудио 2: 48 kHz, AC3 Dolby Digital, 2/0 (L,R) ch, ~192 kbps | Original
I:\Вторая книга джунглей Маугли и Балу\The.Second.Jungle.Book.Mowgli.Baloo.DVDRip-AVC.dexter_lex.mkv
General
Unique ID : 173200831800848391531885229612808084712 (0x824D444F59E7B01BBBBDD1FFD2E11CE8)
Complete name : I:\Вторая книга джунглей Маугли и Балу\The.Second.Jungle.Book.Mowgli.Baloo.DVDRip-AVC.dexter_lex.mkv
Format : Matroska
Format version : Version 4 / Version 2
File size : 1.46 GiB
Duration : 1h 25mn
Overall bit rate : 2 433 Kbps
Encoded date : UTC 2014-02-10 12:50:50
Writing application : mkvmerge v6.1.0 ('Old Devil') built on Mar 4 2013 09:10:42
Writing library : libebml v1.3.0 + libmatroska v1.4.0
Video #1
ID : 1
Format : AVC
Format/Info : Advanced Video Codec
Format profile : High@L4.1
Format settings, CABAC : Yes
Format settings, ReFrames : 11 frames
Codec ID : V_MPEG4/ISO/AVC
Duration : 1h 25mn
Bit rate : 2 047 Kbps
Width : 720 pixels
Height : 426 pixels
Display aspect ratio : 2.40:1
Frame rate mode : Constant
Frame rate : 25.000 fps
Color space : YUV
Chroma subsampling : 4:2:0
Bit depth : 8 bits
Scan type : Progressive
Bits/(Pixel*Frame) : 0.267
Stream size : 1.20 GiB (82%)
Writing library : x264 core 130 r2273 b3065e6
Encoding settings : cabac=1 / ref=11 / deblock=1:-2:-1 / analyse=0x3:0x113 / me=umh / subme=10 / psy=1 / psy_rd=1.00:0.20 / mixed_ref=1 / me_range=48 / chroma_me=1 / trellis=2 / 8x8dct=1 / cqm=0 / deadzone=21,11 / fast_pskip=0 / chroma_qp_offset=-3 / threads=6 / lookahead_threads=1 / sliced_threads=0 / nr=0 / decimate=0 / interlaced=0 / bluray_compat=0 / constrained_intra=0 / bframes=9 / b_pyramid=2 / b_adapt=2 / b_bias=0 / direct=3 / weightb=1 / open_gop=0 / weightp=2 / keyint=250 / keyint_min=25 / scenecut=40 / intra_refresh=0 / rc_lookahead=60 / rc=2pass / mbtree=1 / bitrate=2047 / ratetol=1.0 / qcomp=0.60 / qpmin=0 / qpmax=69 / qpstep=4 / cplxblur=20.0 / qblur=0.5 / ip_ratio=1.40 / aq=1:1.00
Language : English
Default : Yes
Forced : No
Audio #2
ID : 2
Format : AC-3
Format/Info : Audio Coding 3
Mode extension : CM (complete main)
Format settings, Endianness : Big
Codec ID : A_AC3
Duration : 1h 25mn
Bit rate mode : Constant
Bit rate : 192 Kbps
Channel count : 2 channels
Channel positions : Front: L R
Sampling rate : 48.0 KHz
Bit depth : 16 bits
Compression mode : Lossy
Stream size : 118 MiB (8%)
Language : Russian
Default : Yes
Forced : No
Audio #3
ID : 3
Format : AC-3
Format/Info : Audio Coding 3
Format profile : Dolby Digital
Mode extension : CM (complete main)
Format settings, Endianness : Big
Codec ID : A_AC3
Duration : 1h 25mn
Bit rate mode : Constant
Bit rate : 192 Kbps
Channel count : 2 channels
Channel positions : Front: L R
Sampling rate : 48.0 KHz
Bit depth : 16 bits
Compression mode : Lossy
Stream size : 118 MiB (8%)
Language : English
Default : No
Forced : No
Аватара пользователя
Korsar
Помощник Администратора-Корсар
 
Месяцев на трекере: 9Месяцев на трекере: 9Месяцев на трекере: 9Месяцев на трекере: 9Месяцев на трекере: 9Месяцев на трекере: 9Месяцев на трекере: 9Месяцев на трекере: 9Месяцев на трекере: 9
 

Награды: 2
За отличные раздачи (2)
  • Торрент
Для скачивания торрента необходимо зарегистрироваться или войти на трекер.

Вернуться в Зарубежное кино (1991-2000)



мониторинг сайтов