logo
Международный русскоязычный
торрент-трекер
Menu
Doublon
Поделиться с друзьями: 
Голосуй за Корсар и получи 400 дублонов
Рейтинг торрент трекеров - UpTracker.ru

Встреча на Эльбе (1949, Военный, DVDRip-AVC)

Сообщение mister.hats » 08 ноя 2018, 10:23

Встреча на Эльбе




Год выпуска: 1949
Жанр: Военный
Страна: СССР
Продолжительность: 01:37:35
Перевод: Не требуется

Режиссер: Григорий Александров
В ролях: Владлен Давыдов, Константин Нассонов, Борис Андреев, Михаил Названов, Любовь Орлова, Иван Любезнов, Владимир Владиславский, Фаина Раневская, Эраст Гарин, Сергей Ценин, Юрий Юровский, Геннадий Юдин, Виктор Кулаков, Лидия Сухаревская, М. Мамин, Николай Никитич, Пётр Старковский, Борис Свобода, Андрей Файт...

Описание: Советские и американские войска встречаются на берегах Эльбы в последние дни Великой отечественной войны. Советское командование пытается наладить мирную жизнь в разоренной Германии. Американцы же с помощью бывшего нациста пытаются получить секретные военные разработки…



Кодек: х264
Качество: DVDRip-AVC
Видео: MPEG-4 AVC, 3000 Кбит/с, 708x556@755х556, 25 кадр/с
Аудио 1: Русский, AC3, 1 ch, 128 Кбит/с
Аудио 2: Немецкий, AC3, 2 ch, 192 Кбит/с
Субтитры: Нет
Главы: Есть



x264 [info]: frame I:812 Avg QP:17.08 size: 67730
x264 [info]: frame P:33955 Avg QP:19.40 size: 34796
x264 [info]: frame B:111365 Avg QP:21.81 size: 8580

Общее
Уникальный идентификатор : 172792184675761007396352467379885145711 (0x81FE90737EB7DF2DB28F6A9043077E6F)
Полное имя : H:СССРВстреча на Эльбе 1949_DVDRip-AVC.mkv
Формат : Matroska
Версия формата : Version 2
Размер файла : 2,26 Гбайт
Продолжительность : 1 ч. 37 м.
Общий поток : 3321 Кбит/сек
Дата кодирования : UTC 2018-11-05 04:28:17
Программа кодирования : mkvmerge v5.8.0 ('No Sleep / Pillow') built on Sep 2 2012 15:37:04
Библиотека кодирования : libebml v1.2.3 + libmatroska v1.3.0

Видео
Идентификатор : 1
Формат : AVC
Формат/Информация : Advanced Video Codec
Профиль формата : High@L4.1
Настройки формата : CABAC / 16 Ref Frames
Параметр CABAC формата : Да
Параметр RefFrames формата : 16 кадров
Идентификатор кодека : V_MPEG4/ISO/AVC
Продолжительность : 1 ч. 37 м.
Битрейт : 3000 Кбит/сек
Ширина : 708 пикселей
Высота : 556 пикселей
Соотношение сторон : 4:3
Режим частоты кадров : Постоянный
Частота кадров : 25,000 кадров/сек
Цветовое пространство : YUV
Субдискретизация насыщенности : 4:2:0
Битовая глубина : 8 бит
Тип развёртки : Прогрессивная
Бит/(Пиксели*Кадры) : 0.305
Размер потока : 2,00 Гбайт (88%)
Библиотека кодирования : x264 core 152 r2851kMod ba24899
Настройки программы : cabac=1 / ref=16 / deblock=1:-2:-2 / analyse=0x3:0x133 / me=umh / subme=11 / psy=1 / fade_compensate=0.00 / psy_rd=1.05:0.05 / mixed_ref=1 / me_range=48 / chroma_me=1 / trellis=2 / 8x8dct=1 / cqm=0 / deadzone=21,11 / fast_pskip=0 / chroma_qp_offset=-3 / threads=12 / lookahead_threads=2 / sliced_threads=0 / nr=0 / decimate=0 / interlaced=0 / bluray_compat=0 / constrained_intra=0 / bframes=8 / b_pyramid=2 / b_adapt=2 / b_bias=0 / direct=3 / weightb=1 / open_gop=0 / weightp=2 / keyint=250 / keyint_min=25 / scenecut=40 / intra_refresh=0 / rc_lookahead=40 / rc=2pass / mbtree=0 / bitrate=3000 / ratetol=1.0 / qcomp=0.60 / qpmin=0 / qpmax=39 / qpstep=4 / cplxblur=20.0 / qblur=0.5 / vbv_maxrate=50000 / vbv_bufsize=62500 / nal_hrd=none / filler=0 / ip_ratio=1.25 / pb_ratio=1.30 / aq=1:0.90
Язык : English
Default : Да
Forced : Нет
Цветовой диапазон : Limited
Основные цвета : BT.601 PAL
Характеристики трансфера : BT.470 System B, BT.470 System G
Коэффициенты матрицы : BT.470 System B, BT.470 System G

Аудио #1
Идентификатор : 2
Формат : AC-3
Формат/Информация : Audio Coding 3
Параметр Endianness формата : Big
Идентификатор кодека : A_AC3
Продолжительность : 1 ч. 37 м.
Вид битрейта : Постоянный
Битрейт : 128 Кбит/сек
Каналы : 1 канал
Расположение каналов : Front: C
Частота : 48,0 КГц
Частота кадров : 31,250 кадров/сек (1536 SPF)
Битовая глубина : 16 бит
Метод сжатия : С потерями
Размер потока : 89,2 Мбайт (4%)
Язык : Russian
Default : Да
Forced : Нет

Аудио #2
Идентификатор : 3
Формат : AC-3
Формат/Информация : Audio Coding 3
Параметр Endianness формата : Big
Идентификатор кодека : A_AC3
Продолжительность : 1 ч. 37 м.
Вид битрейта : Постоянный
Битрейт : 192 Кбит/сек
Каналы : 2 канала
Расположение каналов : Front: L R
Частота : 48,0 КГц
Частота кадров : 31,250 кадров/сек (1536 SPF)
Битовая глубина : 16 бит
Метод сжатия : С потерями
Размер потока : 134 Мбайт (6%)
Язык : English
Default : Нет
Forced : Нет

Меню
00:00:00.000 : en:Chapter 1
00:01:50.320 : en:Chapter 2
00:12:48.880 : en:Chapter 3
00:22:18.640 : en:Chapter 4
00:32:50.320 : en:Chapter 5
00:44:02.320 : en:Chapter 6
00:53:57.040 : en:Chapter 7
01:05:32.080 : en:Chapter 8
01:15:59.920 : en:Chapter 9
01:37:14.600 : en:Chapter 10

Тот кто не с нами, тот против нас
КУБКИ

СТАЖ

МЕДАЛИ
Награды:59

За помощь проекту (7) Лучший по количеству кубков (15) За отличные раздачи и качество (24) За подробное оформление раздач (2) За отличные комментарии (1) Верный Сид (10)

Аватара пользователя
Тортуга
mister.hats
Заслуженный Корсар-Вип
  • Торрент
Для скачивания торрента необходимо зарегистрироваться или войти на трекер.

Сообщение Бользен » 08 ноя 2018, 14:11

Благодарю :yahoo:
КУБКИ

СТАЖ

МЕДАЛИ
Награды:5

Лучший по количеству кубков (1) За отличные комментарии (1) Верный Сид (3)

Аватара пользователя
СССР
Бользен
Уважаемый Корсар

Сообщение mister.hats » 08 ноя 2018, 22:31

Сравнение с рипом из сети: http://screenshotcomparison.com/compari ... /picture:0

Тот кто не с нами, тот против нас
КУБКИ

СТАЖ

МЕДАЛИ
Награды:59

За помощь проекту (7) Лучший по количеству кубков (15) За отличные раздачи и качество (24) За подробное оформление раздач (2) За отличные комментарии (1) Верный Сид (10)

Аватара пользователя
Тортуга
mister.hats
Заслуженный Корсар-Вип


Вернуться в Кино времён СССР



Uptime по данным Ping-Admin.Ru - сервиса мониторинга доступности сайтов
Рейтинг@Mail.ru Голосуйте за наш сайт в каталоге Rubo.Ru