Korsar.tv - Скачать торрент - Вспышка / Проблеск / Flashpoint (1984, Триллер, WEB-DLRip 720p) - KORSAR
logo
Международный русскоязычный
торрент-трекер
Menu

Doublon
Поделиться с друзьями: 
Голосуй за Корсар и получи 150 дублонов
Рейтинг торрент трекеров - UpTracker.ru

Вспышка / Проблеск / Flashpoint (1984, Триллер, WEB-DLRip 720p) - KORSAR

Сообщение mzma » 08 мар 2018, 14:33

Название: Вспышка / Проблеск / Озарение
Оригинальное название: Flashpoint
Год выпуска: 1984
Выпущено: США, Home Box Office (HBO), Silver Screen Partners
Жанр: Триллер
Режиссер: Уильям Тэннен
В ролях: Крис Кристофферсон, Трит Уильямс, Рип Торн, Кевин Конуэй, Кертвуд Смит, Мигель Феррер, Джин Смарт, Гай Бойд, Марк Слэйд, Робертс Блоссом

О фильме: Два офицера пограничного патруля случайно находят полузасыпанный песком джип, а в нем скелет, винтовку и 800 000 долларов наличными, что вовлекает их в таинственную историю, начало которой датируется 1963 годом. Эта находка повлекла за собой вереницу захватывающих и насыщенных «экшеном» приключений, ежеминутно грозящих им смертью. И связано это все, возможно, с убийством президента Кеннеди…



Продолжительность: 01:33:00
Перевод: Дублированный, авторский
Субтитры: Английские
Навигация по главам: Есть

Качество: WEB-DLRip 720p
Видео: MPEG-4 AVC, 7197 Кбит/сек, 1280x720, 23,976 кадра/сек
Аудио #1: AC3, 2 ch, 192 Кбит/сек | Русский, профессиональный (Советский дубляж) со вставками одноголосого, Stalk
Аудио #2: AC3, 2 ch, 192 Кбит/сек | Русский, авторский (одноголосый закадровый) Алексей Михалев
Аудио #3: AC3, 2 ch, 192 Кбит/сек | Русский, авторский (одноголосый закадровый) Леонид Володарский
Аудио #4: AC3, 2 ch, 224 Кбит/сек | Английский, оригинал


x264 [info]: frame I:761 Avg QP:14.96 size:159028
x264 [info]: frame P:28250 Avg QP:17.55 size: 70855
x264 [info]: frame B:104770 Avg QP:19.44 size: 27653
-----------------------------------------------------
Общее
Уникальный идентификатор : 185843097005048292937278022349530316864 (0x8BD0141BB83B9701A7E6791B2AE3C040)
Полное имя : Вспышка.1984.WEB-DLRip.720p.KORSAR.mkv
Формат : Matroska
Версия формата : Version 2
Размер файла : 5,20 Гбайт
Продолжительность : 1 ч. 32 м.
Общий поток : 8000 Кбит/сек
Дата кодирования : UTC 2018-03-12 01:26:38
Программа кодирования : mkvmerge v5.8.0 ('No Sleep / Pillow') built on Sep 2 2012 15:37:04
Библиотека кодирования : libebml v1.2.3 + libmatroska v1.3.0

Видео
Идентификатор : 1
Формат : AVC
Формат/Информация : Advanced Video Codec
Профиль формата : High@L4.1
Параметр CABAC формата : Да
Параметр RefFrames формата : 9 кадров
Идентификатор кодека : V_MPEG4/ISO/AVC
Продолжительность : 1 ч. 32 м.
Битрейт : 7197 Кбит/сек
Ширина : 1280 пикселей
Высота : 720 пикселей
Соотношение сторон : 16:9
Режим частоты кадров : Постоянный
Частота кадров : 23,976 (24000/1001) кадра/сек
Цветовое пространство : YUV
Субдискретизация насыщенности : 4:2:0
Битовая глубина : 8 бит
Тип развёртки : Прогрессивная
Бит/(Пиксели*Кадры) : 0.326
Размер потока : 4,57 Гбайт (88%)
Заголовок : RIP | MZMA
Библиотека кодирования : x264 core 152 r2851kMod ba24899
Настройки программы : cabac=1 / ref=9 / deblock=1:-3:-3 / analyse=0x3:0x113 / me=umh / subme=11 / psy=1 / fade_compensate=0.00 / psy_rd=1.00:0.00 / mixed_ref=1 / me_range=64 / chroma_me=1 / trellis=2 / 8x8dct=1 / cqm=0 / deadzone=21,11 / fast_pskip=0 / chroma_qp_offset=-2 / threads=6 / lookahead_threads=1 / sliced_threads=0 / nr=0 / decimate=0 / interlaced=0 / bluray_compat=0 / constrained_intra=0 / bframes=16 / b_pyramid=2 / b_adapt=2 / b_bias=0 / direct=3 / weightb=1 / open_gop=0 / weightp=2 / keyint=240 / keyint_min=23 / scenecut=40 / intra_refresh=0 / rc_lookahead=40 / rc=2pass / mbtree=0 / bitrate=7197 / ratetol=1.0 / qcomp=0.60 / qpmin=0 / qpmax=69 / qpstep=4 / cplxblur=20.0 / qblur=0.5 / vbv_maxrate=50000 / vbv_bufsize=62500 / nal_hrd=none / filler=0 / ip_ratio=1.40 / pb_ratio=1.30 / aq=3:0.90
Язык : English
Default : Да
Forced : Нет
Цветовой диапазон : Limited
Основные цвета : BT.709
Характеристики трансфера : BT.709
Коэффициенты матрицы : BT.709

Аудио #1
Идентификатор : 2
Формат : AC-3
Формат/Информация : Audio Coding 3
Параметр Endianness формата : Big
Идентификатор кодека : A_AC3
Продолжительность : 1 ч. 32 м.
Вид битрейта : Постоянный
Битрейт : 192 Кбит/сек
Каналы : 2 канала
Расположение каналов : Front: L R
Частота : 48,0 КГц
Частота кадров : 31,250 кадров/сек (1536 SPF)
Битовая глубина : 16 бит
Метод сжатия : С потерями
Размер потока : 128 Мбайт (2%)
Заголовок : DUB
Язык : Russian
По умолчанию : Да
Принудительно : Нет

Аудио #2
Идентификатор : 3
Формат : AC-3
Формат/Информация : Audio Coding 3
Параметр Endianness формата : Big
Идентификатор кодека : A_AC3
Продолжительность : 1 ч. 32 м.
Вид битрейта : Постоянный
Битрейт : 192 Кбит/сек
Каналы : 2 канала
Расположение каналов : Front: L R
Частота : 48,0 КГц
Частота кадров : 31,250 кадров/сек (1536 SPF)
Битовая глубина : 16 бит
Метод сжатия : С потерями
Размер потока : 128 Мбайт (2%)
Заголовок : AVO | А. Михалев
Язык : Russian
По умолчанию : Нет
Принудительно : Нет

Аудио #3
Идентификатор : 4
Формат : AC-3
Формат/Информация : Audio Coding 3
Параметр Endianness формата : Big
Идентификатор кодека : A_AC3
Продолжительность : 1 ч. 32 м.
Вид битрейта : Постоянный
Битрейт : 192 Кбит/сек
Каналы : 2 канала
Расположение каналов : Front: L R
Частота : 48,0 КГц
Частота кадров : 31,250 кадров/сек (1536 SPF)
Битовая глубина : 16 бит
Метод сжатия : С потерями
Размер потока : 128 Мбайт (2%)
Заголовок : AVO | Л. Володарский
Язык : Russian
По умолчанию : Нет
Принудительно : Нет

Аудио #4
Идентификатор : 5
Формат : AC-3
Формат/Информация : Audio Coding 3
Параметр Endianness формата : Big
Идентификатор кодека : A_AC3
Продолжительность : 1 ч. 32 м.
Вид битрейта : Постоянный
Битрейт : 224 Кбит/сек
Каналы : 2 канала
Расположение каналов : Front: L R
Частота : 48,0 КГц
Частота кадров : 31,250 кадров/сек (1536 SPF)
Битовая глубина : 16 бит
Метод сжатия : С потерями
Размер потока : 149 Мбайт (3%)
Заголовок : Original
Язык : English
По умолчанию : Нет
Принудительно : Нет

Текст #1
Идентификатор : 6
Формат : UTF-8
Идентификатор кодека : S_TEXT/UTF8
Идентификатор кодека/Информация : UTF-8 Plain Text
Язык : English
По умолчанию : Нет
Принудительно : Нет

Текст #2
Идентификатор : 7
Формат : UTF-8
Идентификатор кодека : S_TEXT/UTF8
Идентификатор кодека/Информация : UTF-8 Plain Text
Заголовок : SDH
Язык : English
По умолчанию : Нет
Принудительно : Нет

Меню
00:00:00.000 : en:Chapter 01
00:07:49.511 : en:Chapter 02
00:14:41.797 : en:Chapter 03
00:24:04.568 : en:Chapter 04
00:29:08.372 : en:Chapter 05
00:34:30.694 : en:Chapter 06
00:41:46.671 : en:Chapter 07
00:48:10.346 : en:Chapter 08
00:57:50.342 : en:Chapter 09
01:02:42.467 : en:Chapter 10
01:08:02.453 : en:Chapter 11
01:20:17.771 : en:Chapter 12
01:30:01.730 : en:Chapter 13


Аватара пользователя
mzma
Главный Модератор-Корсар
 
 

Награды: 69
За помощь проекту (3) Лучший по количеству кубков (6) За отличные раздачи и качество (38) За подробное оформление раздач (10) Верный Сид (10)
Раздачи группы KORSAR разрешено перезаливать спустя сутки после публикации
  • Торрент
Для скачивания торрента необходимо зарегистрироваться или войти на трекер.

Сообщение Korsar » 08 мар 2018, 14:44

Леонид спасибо.
Отличный фильм. :-drinks:

Боцман
Аватара пользователя
Korsar
Заслуженный Корсар-Вип
 
 

Награды: 31
За помощь проекту (2) Лучший по количеству кубков (1) За отличные раздачи и качество (13) За подробное оформление раздач (1) За отличные комментарии (1) Верный Сид (11) За участие в конкурсах/играх (2)

Сообщение filbi1976 » 08 мар 2018, 15:01

Класс. :10 balov: :-drinks: :hi:
Аватара пользователя
filbi1976
Администратор-Корсар
 
 

Награды: 51
За помощь проекту (1) За отличные раздачи и качество (37) Верный Сид (10) За участие в конкурсах/играх (1)

Сообщение Yorker » 08 мар 2018, 19:26

В детстве в кино смотрел. Супер!
Аватара пользователя
Yorker
Уважаемый Корсар
 
 

Награды: 10
Лучший по количеству кубков (1) Верный Сид (9)

Сообщение filbi1976 » 11 мар 2018, 20:53

У кого остался данный файл просьба присоединиться к раздаче, нужны дороги из этого рипа, ибо видео было переделано. :hi:
Аватара пользователя
filbi1976
Администратор-Корсар
 
 

Награды: 51
За помощь проекту (1) За отличные раздачи и качество (37) Верный Сид (10) За участие в конкурсах/играх (1)

Сообщение mzma » 12 мар 2018, 01:53

filbi1976 писал(а):У кого остался данный файл просьба присоединиться к раздаче

Всем спасибо, а то пришлось бы делать опять всё с нуля.
Аватара пользователя
mzma
Главный Модератор-Корсар
 
 

Награды: 69
За помощь проекту (3) Лучший по количеству кубков (6) За отличные раздачи и качество (38) За подробное оформление раздач (10) Верный Сид (10)

Сообщение mzma » 13 мар 2018, 00:10

Раздача обновлена, немного улучшено качество картинки.
Аватара пользователя
mzma
Главный Модератор-Корсар
 
 

Награды: 69
За помощь проекту (3) Лучший по количеству кубков (6) За отличные раздачи и качество (38) За подробное оформление раздач (10) Верный Сид (10)


Вернуться в Зарубежное кино (1981-1990 / HD Video)



Uptime по данным Ping-Admin.Ru - сервиса мониторинга доступности сайтов
Рейтинг@Mail.ru