logo
Международный русскоязычный
торрент-трекер
Menu
Doublon
Поделиться с друзьями: 
Голосуй за Корсар и получи 500 дублонов
Рейтинг торрент трекеров - UpTracker.ru

Всё началось с Евы / It Started with Eve (1941, мюзикл, мелодрама, комедия, WEB-DL 1080p)

Сообщение kisa1980 » 26 окт 2019, 15:06

Название: Всё началось с Евы
Оригинальное название: It Started with Eve
Год выпуска: 1941
Жанр: Мюзикл, мелодрама, комедия
Режиссер: Генри Костер
В ролях: Дина Дурбин, Чарльз Лотон, Роберт Каммингс, Гай Кибби, Маргарет Толличет, Катрин Дусе, Уолтер Кэтлетт, Чарльз Коулмэн, Леонард Эллиотт, Ирвинг Бэйкон

Описание: Джонатан Рейнольдс (Чарльз Лоутон) выдающийся биржевой магнат, находясь на смертном одре, просит сына (Роберт Каммингс) исполнить его последнюю просьбу, показать ему будущую невестку. Но она (Маргарет Толличет) ушла за покупками со своей матерью. Сынок принимает решение выдать за свою избранницу первую попавшуюся девушку. Увидев её милое лицо, старик приободряется и его здоровье начинает идти на поправку. Сын оказывается в пикантной ситуации, которая в итоге изменит его решение женится.



Страна: США
Студия: Universal Pictures
Продолжительность: 01:30:24
Перевод 1: Профессиональный (многоголосый, закадровый) | Светла
Перевод 2: Авторский (одноголосый, закадровый) | Сергей Кузнецов

Качество: WEB-DL 1080p
Контейнер: MKV
Видео: MPEG4 AVC Video, H264, 4:3, 1440x1080, 23.976 fps, 14.5 Mbps
Аудио 1: Russian (AC3, 2 ch, 192 kbps, 16 bits, 48.0 KHz) - MVO, Светла
Аудио 2: Russian (AC3, 2 ch, 192 kbps, 16 bits, 48.0 KHz) - AVO, С. Кузнецов
Аудио 3: English (E-AC3, 2 ch, 224 kbps, 16 bits, 48.0 KHz) - Оригинал
Субтитры: Английские


General
Unique ID : 252048527669712715005110371502612717613 (0xBD9EC7DB2789B56BA9A4865EDC62A02D)
Complete name : H:\It.Started.with.Eve.1941.1080p.WEBRip.DDP2.0.x264-SbR\It.Started.with.Eve.1941.WEB-DL.1080p-SbR.mkv
Format : Matroska
Format version : Version 4 / Version 2
File size : 9.71 GiB
Duration : 1 h 30 min
Overall bit rate mode : Variable
Overall bit rate : 15.4 Mb/s
Encoded date : UTC 2019-10-25 11:23:12
Writing application : mkvmerge v6.1.0 ('Old Devil') built on Mar 2 2013 14:32:37
Writing library : libebml v1.3.0 + libmatroska v1.4.0

Video
ID : 1
Format : AVC
Format/Info : Advanced Video Codec
Format profile : High@L4
Format settings : CABAC / 4 Ref Frames
Format settings, CABAC : Yes
Format settings, ReFrames : 4 frames
Codec ID : V_MPEG4/ISO/AVC
Duration : 1 h 30 min
Bit rate mode : Variable
Bit rate : 14.5 Mb/s
Maximum bit rate : 15.0 Mb/s
Width : 1 440 pixels
Height : 1 080 pixels
Display aspect ratio : 4:3
Frame rate mode : Constant
Frame rate : 23.976 (24000/1001) FPS
Color space : YUV
Chroma subsampling : 4:2:0
Bit depth : 8 bits
Scan type : Progressive
Bits/(Pixel*Frame) : 0.388
Stream size : 9.14 GiB (94%)
Language : English
Default : Yes
Forced : No
Color range : Limited
Color primaries : BT.709
Transfer characteristics : BT.709
Matrix coefficients : BT.709

Audio #1
ID : 2
Format : AC-3
Format/Info : Audio Coding 3
Codec ID : A_AC3
Duration : 1 h 30 min
Bit rate mode : Constant
Bit rate : 192 kb/s
Channel(s) : 2 channels
Channel positions : Front: L R
Sampling rate : 48.0 kHz
Frame rate : 31.250 FPS (1536 SPF)
Bit depth : 16 bits
Compression mode : Lossy
Stream size : 124 MiB (1%)
Title : Светла
Language : Russian
Service kind : Complete Main
Default : Yes
Forced : No

Audio #2
ID : 3
Format : AC-3
Format/Info : Audio Coding 3
Codec ID : A_AC3
Duration : 1 h 30 min
Bit rate mode : Constant
Bit rate : 192 kb/s
Channel(s) : 2 channels
Channel positions : Front: L R
Sampling rate : 48.0 kHz
Frame rate : 31.250 FPS (1536 SPF)
Bit depth : 16 bits
Compression mode : Lossy
Stream size : 124 MiB (1%)
Title : С.Кузнецов
Language : Russian
Service kind : Complete Main
Default : No
Forced : No

Audio #3
ID : 4
Format : E-AC-3
Format/Info : Enhanced Audio Coding 3
Codec ID : A_EAC3
Duration : 1 h 30 min
Bit rate mode : Constant
Bit rate : 224 kb/s
Channel(s) : 2 channels
Channel positions : Front: L R
Sampling rate : 48.0 kHz
Frame rate : 187.500 FPS (256 SPF)
Compression mode : Lossy
Stream size : 145 MiB (1%)
Language : English
Service kind : Complete Main
Default : No
Forced : No

Text #1
ID : 5
Format : UTF-8
Codec ID : S_TEXT/UTF8
Codec ID/Info : UTF-8 Plain Text
Language : English
Default : No
Forced : No

Text #2
ID : 6
Format : UTF-8
Codec ID : S_TEXT/UTF8
Codec ID/Info : UTF-8 Plain Text
Title : SDH
Language : English
Default : No
Forced : No

Menu
00:00:00.820 : en:01. Last Goodbye (Main Titles)
00:06:58.335 : en:02. Stand-In Bride
00:10:35.552 : en:03. Keep an Eye on Him
00:16:57.058 : en:04. I'm Hungry
00:21:59.860 : en:05. The Family
00:29:22.052 : en:06. In Cahoots
00:35:05.895 : en:07. When I Sing
00:40:42.565 : en:08. Throwing a Party
00:45:16.797 : en:09. Free to Go
00:50:17.890 : en:10. Lovers' Quarrel
00:54:53.624 : en:11. Clavelitos
01:00:42.389 : en:12. Tried to Tell Him
01:06:14.179 : en:13. Canceled Plans
01:11:59.690 : en:14. Going Home
01:18:24.909 : en:15. Being Seen
01:24:00.202 : en:16. Dance the Conga
01:26:57.879 : en:17. Never Again
01:30:04.983 : en:18. End Titles
КУБКИ

СТАЖ

МЕДАЛИ
Награды:109

За активную помощь проекту (10) Лучший по количеству кубков (3) За отличные раздачи и качество (37) За подробное оформление раздач (6) За отличные комментарии (9) Почётный форумчанин (12) Верный Сид (28) За участие в конкурсах/играх (2)

Аватара пользователя
Тортуга
kisa1980
Главный помощник Администратора-Корсар
  • Торрент
Для скачивания торрента необходимо зарегистрироваться или войти на трекер.

Вернуться в Классика зарубежного кино (фильмы до 1980 года / HD Video)



Uptime по данным Ping-Admin.Ru - сервиса мониторинга доступности сайтов
Рейтинг@Mail.ru