logo
Международный русскоязычный
торрент-трекер
Menu
Doublon
Поделиться с друзьями: 
Голосуй за Корсар и получи 500 дублонов
Рейтинг торрент трекеров - UpTracker.ru

Война токов / The Current War (2017, драма, биография, история, BDRip 720p) | Режиссерская версия | iTunes

Сообщение al1ksandr » 25 мар 2020, 22:46

Название: Война токов
Оригинальное название: The Current War
Год выхода: 2017
Жанр: Драма, биография, история
Режиссер: Альфонсо Гомес-Рехон
В ролях: Бенедикт Камбербэтч, Том Холланд, Майкл Шеннон, Николас Холт, Кэтрин Уотерстон, Мэттью Макфэдьен, Таппенс Мидлтон, Вуди Норман, Луис Эшборн Серкис, Дэмиен Молони, Том Свит, Эми Марстон

О фильме: Америка, 1880 год. Мир освещается огнём, механизмы приводятся в движение паром или приложением силы. Гениальный изобретатель Томас Эдисон совершил ряд прорывных открытий, среди которых постоянный ток и изобретение лампы накаливания. Пока он встречается с инвесторами, инженер Джордж Вестингауз, сколотивший состояние на патенте тормозов для поездов, видит больше преимуществ в использовании переменного тока. Кроме того, недальновидный бизнесмен Эдисон берёт на работу простым инженером эмигранта Николу Теслу, и не увидев в его идеях потенциала, вскоре теряет ценного сотрудника. Соревнование за электрификацию американских городов — война постоянного и переменного токов продолжается.



Страна: США
Студия: Bazelevs Production, Film Rites, FlightAV.com
Продолжительность: 01:42:17
Перевод: Дублированный | iTunes

Качество: BDRip 720p
Формат: Matroska
Видео: MPEG-4 AVC, 1280x536, 7132 kbps, 23.976 fps
Аудио 1: Russian: АС3, 6 ch, 384 Кбит/с, 48.0 KHz - iTunes
Аудио 2: English: AC3, 6 ch, 448 Кбит/с, 48.0 KHz - Оригинал
Субтитры: Русские (форс.), английские (SDH)

Релиз от:


Общее
Уникальный идентификатор : 174648714224719387707347503560985057844 (0x83641E6CC8B20F9DA182BB254ABE9A34)
Полное имя : G:Torrent2VojnaTokovBDRip720p.mkv
Формат : Matroska
Версия формата : Version 4 / Version 2
Размер файла : 5,69 Гбайт
Продолжительность : 1 ч. 42 м.
Общий поток : 7967 Кбит/сек
Дата кодирования : UTC 2020-03-25 19:17:29
Программа кодирования : mkvmerge v9.5.0 ('Quiet Fire') 64bit
Библиотека кодирования : libebml v1.3.4 + libmatroska v1.4.5

Видео
Идентификатор : 1
Формат : AVC
Формат/Информация : Advanced Video Codec
Профиль формата : High@L4.1
Настройки формата : CABAC / 12 Ref Frames
Параметр CABAC формата : Да
Параметр RefFrames формата : 12 кадров
Идентификатор кодека : V_MPEG4/ISO/AVC
Продолжительность : 1 ч. 42 м.
Битрейт : 7132 Кбит/сек
Ширина : 1280 пикселей
Высота : 536 пикселей
Соотношение сторон : 2,40:1
Режим частоты кадров : Постоянный
Частота кадров : 23,976 (23976/1000) кадра/сек
Цветовое пространство : YUV
Субдискретизация насыщенности : 4:2:0
Битовая глубина : 8 бит
Тип развёртки : Прогрессивная
Бит/(Пиксели*Кадры) : 0.434
Размер потока : 5,10 Гбайт (90%)
Заголовок : Sisendrovich(R)
Библиотека кодирования : x264 core 159 r2991 1771b55
Настройки программы : cabac=1 / ref=12 / deblock=1:-1:-1 / analyse=0x3:0x133 / me=tesa / subme=11 / psy=1 / psy_rd=1.00:0.00 / mixed_ref=1 / me_range=32 / chroma_me=1 / trellis=2 / 8x8dct=1 / cqm=0 / deadzone=21,11 / fast_pskip=0 / chroma_qp_offset=-2 / threads=17 / lookahead_threads=4 / sliced_threads=0 / nr=0 / decimate=0 / interlaced=0 / bluray_compat=0 / constrained_intra=0 / bframes=12 / b_pyramid=2 / b_adapt=2 / b_bias=0 / direct=3 / weightb=1 / open_gop=0 / weightp=2 / keyint=240 / keyint_min=23 / scenecut=40 / intra_refresh=0 / rc_lookahead=60 / rc=2pass / mbtree=0 / bitrate=7132 / ratetol=1.0 / qcomp=0.70 / qpmin=0 / qpmax=69 / qpstep=4 / cplxblur=20.0 / qblur=0.5 / vbv_maxrate=50000 / vbv_bufsize=62500 / nal_hrd=none / filler=0 / ip_ratio=1.40 / pb_ratio=1.30 / aq=3:0.90 / zones=91597,95696,crf=15
Язык : English
Default : Да
Forced : Нет

Аудио #1
Идентификатор : 2
Формат : AC-3
Формат/Информация : Audio Coding 3
Параметр Endianness формата : Big
Идентификатор кодека : A_AC3
Продолжительность : 1 ч. 42 м.
Вид битрейта : Постоянный
Битрейт : 384 Кбит/сек
Каналы : 6 каналов
Расположение каналов : Front: L C R, Side: L R, LFE
Частота : 48,0 КГц
Частота кадров : 31,250 кадров/сек (1536 SPF)
Битовая глубина : 16 бит
Метод сжатия : С потерями
Размер потока : 281 Мбайт (5%)
Заголовок : rus
Язык : Russian
Default : Да
Forced : Нет

Аудио #2
Идентификатор : 3
Формат : AC-3
Формат/Информация : Audio Coding 3
Параметр Endianness формата : Big
Идентификатор кодека : A_AC3
Продолжительность : 1 ч. 42 м.
Вид битрейта : Постоянный
Битрейт : 448 Кбит/сек
Каналы : 6 каналов
Расположение каналов : Front: L C R, Side: L R, LFE
Частота : 48,0 КГц
Частота кадров : 31,250 кадров/сек (1536 SPF)
Битовая глубина : 16 бит
Метод сжатия : С потерями
Размер потока : 328 Мбайт (6%)
Заголовок : eng
Язык : English
Default : Нет
Forced : Нет

Текст #1
Идентификатор : 4
Формат : UTF-8
Идентификатор кодека : S_TEXT/UTF8
Идентификатор кодека/Информация : UTF-8 Plain Text
Продолжительность : 1 ч. 32 м.
Битрейт : 5 бит/сек
ElementCount : 56
Размер потока : 3,93 Кбайт (0%)
Заголовок : rusForced
Язык : Russian
Default : Да
Forced : Нет

Текст #2
Идентификатор : 5
Формат : UTF-8
Идентификатор кодека : S_TEXT/UTF8
Идентификатор кодека/Информация : UTF-8 Plain Text
Продолжительность : 1 ч. 39 м.
Битрейт : 70 бит/сек
ElementCount : 1429
Размер потока : 51,3 Кбайт (0%)
Заголовок : engSDH
Язык : English
Default : Нет
Forced : Нет

Меню
00:00:00.000 : en:Chapter 1
00:04:15.880 : en:Chapter 2
00:07:28.781 : en:Chapter 3
00:13:03.616 : en:Chapter 4
00:17:20.205 : en:Chapter 5
00:23:52.431 : en:Chapter 6
00:31:15.081 : en:Chapter 7
00:36:49.999 : en:Chapter 8
00:41:15.389 : en:Chapter 9
00:45:56.587 : en:Chapter 10
00:52:21.555 : en:Chapter 11
00:56:40.730 : en:Chapter 12
01:01:52.375 : en:Chapter 13
01:06:31.362 : en:Chapter 14
01:13:37.955 : en:Chapter 15
01:17:23.221 : en:Chapter 16
01:24:23.892 : en:Chapter 17
01:28:39.480 : en:Chapter 18
01:33:28.686 : en:Chapter 19
01:36:04.508 : en:Chapter 20
КУБКИ

СТАЖ

МЕДАЛИ
Награды:48

За активную помощь проекту (4) Лучший по количеству кубков (15) За отличные раздачи и качество (9) За отличные комментарии (14) Почётный форумчанин (2) Верный Сид (1) За участие в конкурсах/играх (2)

Аватара пользователя
СССР
al1ksandr
Главный Модератор-Корсар
  • Торрент
Для скачивания торрента необходимо зарегистрироваться или войти на трекер.

Вернуться в Зарубежное кино (2011-2020 / HD Video)



Uptime по данным Ping-Admin.Ru - сервиса мониторинга доступности сайтов
Рейтинг@Mail.ru