logo
Международный русскоязычный
торрент-трекер
Menu
"Бунт на корабле", за скачанные торрент-файлы дублоны не снимаются. Возможность оплачена пользователем Жорин Сергей.
Doublon
Поделиться с друзьями: 
Голосуй за Корсар и получи 500 дублонов
Рейтинг торрент трекеров - UpTracker.ru

Восстание планеты обезьян / Rise of the Planet of the Apes (2011, фантастика, боевик, драма, триллер, HDTVRip-AVC) | Open Matte

Сообщение sany771 » 14 фев 2020, 08:12

Название: Восстание планеты обезьян
Оригинальное название: Rise of the Planet of the Apes
Год выхода: 2011
Жанр: Фантастика, боевик, драма, триллер
Режиссер: Руперт Уайатт / Rupert Wyatt
В ролях: Джеймс Франко, Фрида Пинто, Джон Литгоу, Брайан Кокс, Том Фелтон, Дэвид Ойелоуо, Тайлер Лэбин, Джэми Харрис, Дэвид Хьюлетт, Тай Олссон, Мэдисон Белл, Макена Джой, Шон Тайсон, Тэмми Хуи, Руфус Дорси, Энтони МакРей, Трэйси Спиридакос, Тимоти Веббер, Робин Нилсен, Моника Мастельер, Элизабет Вайнштейн

О фильме: Условный приквел «Планеты обезьян» — история грустная, неторопливая и поучительная. Сюжет картины рассказывает о назревающей борьбе поумневших приматов с угнетающими их людьми. В центре событий — молодой ученый, сумевший сотворить невозможное. Испытывая лекарство от болезни Альцгеймера на подопытном шимпанзе, он увеличивает интеллект животного в несколько раз. Подопечный героя — примат по кличке Цезарь — начинает чувствовать себя не в своей тарелке. В мире людей он всего лишь обезьяна, а среди себе подобных — изгой, поднявшийся на одну ступень эволюции и отдалившийся от коллектива.



Страна: США
Студия: Twentieth Century Fox
Продолжительность: 01:34:54
Перевод: Профессиональный (полное дублирование)

Формат: MKV
Качество: HDTVRip-AVC
Видео: MPEG-4 AVC, 720x404, - 1016 Кбит/с
Аудио: AAC-HE, 2 ch, - 76 Кбит/с
Субтитры: Русские (forced, full), английские

Общее
Уникальный идентификатор : 48162104696670004942381000012339434769 (0x243BAF1822428BBB5B73A7A7A5615511)
Полное имя : D:MOVIESVosstanie.planety.obezjan.2011.HDTVRip-AVC.ExKinoRay.mkv
Формат : Matroska
Версия формата : Version 4 / Version 2
Размер файла : 746 Мбайт
Продолжительность : 1 ч. 40 м.
Общий поток : 1036 Кбит/сек
Название фильма : Восстание планеты обезьян / Rise of the Planet of the Apes (2011)
Дата кодирования : UTC 2020-02-14 04:18:46
Программа кодирования : mkvmerge v35.0.0 ('All The Love In The World') 64-bit
Библиотека кодирования : libebml v1.3.9 + libmatroska v1.5.2

Видео
Идентификатор : 1
Формат : AVC
Формат/Информация : Advanced Video Codec
Профиль формата : High@L4.1
Параметр CABAC формата : Да
Параметр RefFrames формата : 12 кадров
Идентификатор кодека : V_MPEG4/ISO/AVC
Продолжительность : 1 ч. 34 м.
Битрейт : 1016 Кбит/сек
Ширина : 720 пикселей
Высота : 404 пикселя
Соотношение сторон : 16:9
Режим частоты кадров : Постоянный
Частота кадров : 25,000 кадров/сек
Цветовое пространство : YUV
Субдискретизация насыщенности : 4:2:0
Битовая глубина : 8 бит
Тип развёртки : Прогрессивная
Бит/(Пиксели*Кадры) : 0.140
Размер потока : 690 Мбайт (92%)
Библиотека кодирования : x264 core 159 r2991 1771b55
Настройки программы : cabac=1 / ref=12 / deblock=1:-3:-2 / analyse=0x3:0x133 / me=umh / subme=11 / psy=1 / psy_rd=1.00:0.14 / mixed_ref=1 / me_range=32 / chroma_me=1 / trellis=2 / 8x8dct=1 / cqm=0 / deadzone=21,11 / fast_pskip=0 / chroma_qp_offset=-3 / threads=6 / lookahead_threads=1 / sliced_threads=0 / nr=0 / decimate=0 / interlaced=0 / bluray_compat=0 / constrained_intra=0 / bframes=12 / b_pyramid=2 / b_adapt=2 / b_bias=0 / direct=3 / weightb=1 / open_gop=0 / weightp=2 / keyint=250 / keyint_min=25 / scenecut=40 / intra_refresh=0 / rc=2pass / mbtree=0 / bitrate=1016 / ratetol=1.0 / qcomp=0.60 / qpmin=0 / qpmax=69 / qpstep=4 / cplxblur=20.0 / qblur=0.5 / ip_ratio=1.40 / pb_ratio=1.30 / aq=1:1.00
Default : Да
Forced : Нет

Аудио
Идентификатор : 2
Формат : AAC
Формат/Информация : Advanced Audio Codec
Профиль формата : HE-AAC / LC
Идентификатор кодека : A_AAC
Продолжительность : 1 ч. 40 м.
Битрейт : 76,0 Кбит/сек
Каналы : 2 канала
Расположение каналов : Front: L R
Частота : 48,0 КГц / 24,0 КГц
Частота кадров : 23,438 кадра/сек (1024 SPF)
Метод сжатия : С потерями
Задержка видео : 31 мс.
Размер потока : 54,7 Мбайт (7%)
Default : Да
Forced : Нет

Текст #1
Идентификатор : 3
Формат : UTF-8
Идентификатор кодека : S_TEXT/UTF8
Идентификатор кодека/Информация : UTF-8 Plain Text
Продолжительность : 34 м. 44 с.
Битрейт : 1 бит/сек
ElementCount : 12
Размер потока : 410 байт (0%)
Заголовок : forced
Язык : Russian
Default : Да
Forced : Да

Текст #2
Идентификатор : 4
Формат : UTF-8
Идентификатор кодека : S_TEXT/UTF8
Идентификатор кодека/Информация : UTF-8 Plain Text
Продолжительность : 1 ч. 30 м.
Битрейт : 55 бит/сек
ElementCount : 790
Размер потока : 36,7 Кбайт (0%)
Заголовок : Bluray
Язык : Russian
Default : Нет
Forced : Нет

Текст #3
Идентификатор : 5
Формат : UTF-8
Идентификатор кодека : S_TEXT/UTF8
Идентификатор кодека/Информация : UTF-8 Plain Text
Продолжительность : 1 ч. 32 м.
Битрейт : 60 бит/сек
ElementCount : 842
Размер потока : 41,0 Кбайт (0%)
Заголовок : iTunes
Язык : Russian
Default : Нет
Forced : Нет

Текст #4
Идентификатор : 6
Формат : UTF-8
Идентификатор кодека : S_TEXT/UTF8
Идентификатор кодека/Информация : UTF-8 Plain Text
Продолжительность : 1 ч. 30 м.
Битрейт : 35 бит/сек
ElementCount : 816
Размер потока : 23,4 Кбайт (0%)
Заголовок : full
Язык : English
Default : Нет
Forced : Нет

Текст #5
Идентификатор : 7
Формат : UTF-8
Идентификатор кодека : S_TEXT/UTF8
Идентификатор кодека/Информация : UTF-8 Plain Text
Продолжительность : 16 м. 14 с.
Битрейт : 1 бит/сек
ElementCount : 9
Размер потока : 141 байт (0%)
Заголовок : forced
Язык : English
Default : Нет
Forced : Нет


КУБКИ

СТАЖ

МЕДАЛИ
Награды:7

За отличные раздачи и качество (2) Почётный форумчанин (1)

Аватара пользователя
Russia
sany771
Опытный Релизёр-Корсар
  • Торрент
Для скачивания торрента необходимо зарегистрироваться или войти на трекер.

Вернуться в Зарубежное кино (2011-2020)



Uptime по данным Ping-Admin.Ru - сервиса мониторинга доступности сайтов
Рейтинг@Mail.ru