Korsar.tv - Скачать торрент - Вор/ Le voleur / The Thief of Paris (1967, драма, комедия, криминал, DVDRip-AVC)
logo
Международный русскоязычный
торрент-трекер
Menu

Doublon
Поделиться с друзьями: 
Голосуй за Корсар и получи 150 дублонов
Рейтинг торрент трекеров - UpTracker.ru

Вор/ Le voleur / The Thief of Paris (1967, драма, комедия, криминал, DVDRip-AVC)

Сообщение Korsar » 26 окт 2016, 00:27

Вор / Le voleur / The Thief of Paris
Слоган: «The light touch of the masters! Malle makes ... Belmondo takes.»

Страна: Франция, Италия
Жанр: драма, комедия, криминал
Год выпуска: 1967
Продолжительность: 01:56:05
Перевод: Профессиональный (двухголосый закадровый)
Cубтитры: английские, английские для для слабослышащих, французские
Оригинальная аудиодорожка: французский
Режиссер: Луи Маль / Louis Malle
В ролях: Жан-Поль Бельмондо, Женевьев Бюжо, Мари Дюбуа, Жюльен Гиомар, Поль Ле Персон, Кристиан Люд, Франсуаза Фабиан, Марлен Жобер, Бернадетт Лафон, Мартин Сарси.
Описание: Действие разворачивается в начале века. Джордж Рэндал по происхождению из хорошей семьи. После того, как его дядя растратил его наследство, а его кузина Шарлотта, на которой он рассчитывал жениться, (с подачи того же дяди) вышла замуж за богатого соседа, он из чувства мести становится на путь воровства…
Фильм является экранизацией одноимённого романа 1897 года, писателя Жоржа Дариена.
ММКФ, 1967 год



Номинации (1):

......Главный приз......

Сергей Кудрявцев
.......................................... 8.5/10



Авантюрная ретро-трагикомедияФранцузскому актёру Жан-Полю Бельмондо, помимо участия в двух работах Жан-Люка Годара «На последнем дыхании» и «Безумный Пьеро», довелось сыграть и в других вариациях на тему возможных поворотов в жизни бессознательных контестаторов. Есть в его творческой биографии фильмы, которые как бы переосмысливают, иронически «остраняют» и без того лишённые пафоса, но аффектированные сиюминутные идеалы и настроения из произведений «новой волны», превращаясь в горько-юмористические эпитафии этому направлению в кинематографе.

В «Воре», своего рода язвительном завещании накануне бунтарского мая 1968 года, Бельмондо рисует привлекательный, вызывающий немалую симпатию образ Жоржа Рандаля, вора-аристократа, «благородного Робина Гуда» самого начала XX века, который выпадает и из времени, и из собственного сословия, кажется неисправимым авантюристом, но всё же комичным искателем приключений, а не вольнолюбивой и опасно живущей натурой. Он — человек, который увлёкся дразнящими средствами при достижении якобы благой цели. В ленте Луи Маля, обладавшего немалым вкусом к острой иронии, подчас вообще к фарсовому, буфонному мировосприятию («Зази в метро», «Вива, Мария!» — кстати, её соавтор сценария Жан-Клод Карьер продолжил сотрудничество и на картине «Вор»), главный исполнитель Жан-Поль Бельмондо, пожалуй, впервые раскрылся как яркий мастер типично галльского юмора, хотя и прежде играл роли комедийного плана.

2000

Качество видео: DVDRip-AVC
Формат видео: MKV
Видео: x264, 716x448@763x448(Анаморф), 1.705:1, 25.000 fps, 1 966 kbit/s, Progressive, 0.245 Bits/(Pixel*Frame)
Аудио 1: AC-3, 48 KHz, 2 ch, 192 Kbps, Русский - Профессиональный (двухголосый закадровый)
Аудио 2: AC-3, 48 KHz, 2 ch, 192 Kbps, французский - Original
Формат субтитров: prerendered (IDX+SUB)
Доп. информация о субтитрах: English for [HI]_для слабослышащих.
General
Complete name : Le voleur_1967_DVDRip-AVC_.mkv
Format : Matroska
Format version : Version 2
File size : 1.63 GiB
Duration : 1h 56mn
Overall bit rate : 2 006 Kbps
Writing application : x264 r2334 a3ac64b
Writing library : Haali Matroska Writer b0

Video
ID : 1
Format : AVC
Format/Info : Advanced Video Codec
Format profile : High@L4.1
Format settings, CABAC : Yes
Format settings, ReFrames : 12 frames
Codec ID : V_MPEG4/ISO/AVC
Duration : 1h 56mn
Bit rate : 1 966 Kbps
Width : 716 pixels
Height : 448 pixels
Display aspect ratio : 1.703
Original display aspect ratio : 1.705
Frame rate mode : Constant
Frame rate : 25.000 fps
Color space : YUV
Chroma subsampling : 4:2:0
Bit depth : 8 bits
Scan type : Progressive
Bits/(Pixel*Frame) : 0.245
Stream size : 1.59 GiB (98%)
Writing library : x264 core 133 r2334 a3ac64b
Encoding settings : cabac=1 / ref=12 / deblock=1:-2:-2 / analyse=0x3:0x133 / me=umh / subme=11 / psy=1 / psy_rd=1.00:0.25 / mixed_ref=0 / me_range=32 / chroma_me=1 / trellis=2 / 8x8dct=1 / cqm=0 / deadzone=6,6 / fast_pskip=0 / chroma_qp_offset=-4 / threads=6 / lookahead_threads=1 / sliced_threads=0 / nr=0 / decimate=0 / interlaced=0 / bluray_compat=0 / constrained_intra=0 / bframes=7 / b_pyramid=2 / b_adapt=2 / b_bias=0 / direct=3 / weightb=1 / open_gop=0 / weightp=2 / keyint=250 / keyint_min=25 / scenecut=40 / intra_refresh=0 / rc_lookahead=60 / rc=crf / mbtree=0 / crf=19.1 / qcomp=0.80 / qpmin=0 / qpmax=69 / qpstep=4 / vbv_maxrate=62500 / vbv_bufsize=78125 / crf_max=0.0 / nal_hrd=none / ip_ratio=1.10 / pb_ratio=1.10 / aq=1:0.50
Language : French
Default : Yes
Forced : No
---[Information] [21-Jul-2013 8:23:19] raw [info]: 716x448p 16:15 @ 25/1 fps (cfr)
---[Information] [21-Jul-2013 8:23:19] x264 [info]: using SAR=16/15
---[Information] [21-Jul-2013 8:23:19] x264 [info]: using cpu capabilities: MMX2 SSE2Fast SSSE3 SSE4.2 AVX
---[Information] [21-Jul-2013 8:23:19] x264 [info]: profile High, level 4.1
---[Information] [21-Jul-2013 21:39:51] x264 [info]: frame I:870 Avg QP:19.31 size: 51321
---[Information] [21-Jul-2013 21:39:51] x264 [info]: frame P:50593 Avg QP:20.10 size: 21462
---[Information] [21-Jul-2013 21:39:51] x264 [info]: frame B:122653 Avg QP:21.19 size: 5012
---[Information] [21-Jul-2013 21:39:51] x264 [info]: consecutive B-frames: 6.9% 5.5% 18.5% 20.0% 19.1% 27.7% 2.0% 0.3%
---[Information] [21-Jul-2013 21:39:51] x264 [info]: mb I I16..4: 12.0% 62.2% 25.8%
---[Information] [21-Jul-2013 21:39:51] x264 [info]: mb P I16..4: 0.3% 5.3% 1.4% P16..4: 40.8% 23.9% 16.6% 7.0% 2.5% skip: 2.2%
---[Information] [21-Jul-2013 21:39:51] x264 [info]: mb B I16..4: 0.0% 0.4% 0.1% B16..8: 32.4% 18.7% 3.7% direct: 7.1% skip:37.6% L0:27.4% L1:46.6% BI:26.0%
---[Information] [21-Jul-2013 21:39:51] x264 [info]: 8x8 transform intra:74.0% inter:44.3%
---[Information] [21-Jul-2013 21:39:51] x264 [info]: direct mvs spatial:100.0% temporal:0.0%
---[Information] [21-Jul-2013 21:39:51] x264 [info]: coded y,uvDC,uvAC intra: 95.3% 81.5% 55.1% inter: 29.1% 25.6% 15.9%
---[Information] [21-Jul-2013 21:39:51] x264 [info]: i16 v,h,dc,p: 26% 12% 14% 49%
---[Information] [21-Jul-2013 21:39:51] x264 [info]: i8 v,h,dc,ddl,ddr,vr,hd,vl,hu: 15% 8% 5% 9% 13% 13% 12% 13% 12%
---[Information] [21-Jul-2013 21:39:51] x264 [info]: i4 v,h,dc,ddl,ddr,vr,hd,vl,hu: 13% 10% 4% 8% 14% 14% 13% 11% 12%
---[Information] [21-Jul-2013 21:39:51] x264 [info]: i8c dc,h,v,p: 34% 21% 25% 20%
---[Information] [21-Jul-2013 21:39:51] x264 [info]: Weighted P-Frames: Y:3.3% UV:1.8%
---[Information] [21-Jul-2013 21:39:51] x264 [info]: ref P L0: 61.5% 5.5% 15.4% 3.2% 3.2% 2.1% 2.3% 1.3% 1.4% 1.1% 1.2% 1.2% 0.5% 0.0%
---[Information] [21-Jul-2013 21:39:51] x264 [info]: ref B L0: 89.4% 7.7% 1.1% 0.5% 0.3% 0.3% 0.2% 0.2% 0.1% 0.1% 0.1%
---[Information] [21-Jul-2013 21:39:51] x264 [info]: ref B L1: 97.6% 2.4%
---[Information] [21-Jul-2013 21:39:51] x264 [info]: kb/s:2004.67
---[Information] [21-Jul-2013 21:39:51] encoded 174116 frames, 3.64 fps, 2004.67 kb/s
General
Unique ID : 241623294850308092855842771503561675871 (0xB5C6F43191CEAA63A3CDA3E33519945F)
Complete name : C:\Temp\Le voleur_1967_DVDRip-AVC_.mkv
Format : Matroska
Format version : Version 4 / Version 2
File size : 1.94 GiB
Duration : 1h 56mn
Overall bit rate : 2 398 Kbps
Encoded date : UTC 2013-07-22 02:45:10
Writing application : mkvmerge v6.2.0 ('Promised Land') built on Apr 28 2013 12:22:01
Writing library : libebml v1.3.0 + libmatroska v1.4.0

Video
ID : 1
Format : AVC
Format/Info : Advanced Video Codec
Format profile : High@L4.1
Format settings, CABAC : Yes
Format settings, ReFrames : 12 frames
Codec ID : V_MPEG4/ISO/AVC
Duration : 1h 56mn
Bit rate : 1 967 Kbps
Width : 716 pixels
Height : 448 pixels
Display aspect ratio : 1.703
Original display aspect ratio : 1.705
Frame rate mode : Constant
Frame rate : 25.000 fps
Color space : YUV
Chroma subsampling : 4:2:0
Bit depth : 8 bits
Scan type : Progressive
Bits/(Pixel*Frame) : 0.245
Stream size : 1.59 GiB (82%)
Title : Le voleur_(The Thief of Paris)_1967_DVDRip-AVC_ripped_by_rjhlb777
Writing library : x264 core 133 r2334 a3ac64b
Encoding settings : cabac=1 / ref=12 / deblock=1:-2:-2 / analyse=0x3:0x133 / me=umh / subme=11 / psy=1 / psy_rd=1.00:0.25 / mixed_ref=0 / me_range=32 / chroma_me=1 / trellis=2 / 8x8dct=1 / cqm=0 / deadzone=6,6 / fast_pskip=0 / chroma_qp_offset=-4 / threads=6 / lookahead_threads=1 / sliced_threads=0 / nr=0 / decimate=0 / interlaced=0 / bluray_compat=0 / constrained_intra=0 / bframes=7 / b_pyramid=2 / b_adapt=2 / b_bias=0 / direct=3 / weightb=1 / open_gop=0 / weightp=2 / keyint=250 / keyint_min=25 / scenecut=40 / intra_refresh=0 / rc_lookahead=60 / rc=crf / mbtree=0 / crf=19.1 / qcomp=0.80 / qpmin=0 / qpmax=69 / qpstep=4 / vbv_maxrate=62500 / vbv_bufsize=78125 / crf_max=0.0 / nal_hrd=none / ip_ratio=1.10 / pb_ratio=1.10 / aq=1:0.50
Language : French
Default : Yes
Forced : No

Audio #1
ID : 2
Format : AC-3
Format/Info : Audio Coding 3
Mode extension : CM (complete main)
Format settings, Endianness : Big
Codec ID : A_AC3
Duration : 1h 56mn
Bit rate mode : Constant
Bit rate : 192 Kbps
Channel(s) : 2 channels
Channel positions : Front: L R
Sampling rate : 48.0 KHz
Bit depth : 16 bits
Compression mode : Lossy
Stream size : 159 MiB (8%)
Title : DVO
Language : Russian
Default : Yes
Forced : No

Audio #2
ID : 3
Format : AC-3
Format/Info : Audio Coding 3
Mode extension : CM (complete main)
Format settings, Endianness : Big
Codec ID : A_AC3
Duration : 1h 56mn
Bit rate mode : Constant
Bit rate : 192 Kbps
Channel(s) : 2 channels
Channel positions : Front: L R
Sampling rate : 48.0 KHz
Bit depth : 16 bits
Compression mode : Lossy
Stream size : 159 MiB (8%)
Title : Original
Language : French
Default : No
Forced : No

Text #1
ID : 4
Format : VobSub
Codec ID : S_VOBSUB
Codec ID/Info : The same subtitle format used on DVDs
Language : English
Default : No
Forced : No

Text #2
ID : 5
Format : VobSub
Codec ID : S_VOBSUB
Codec ID/Info : The same subtitle format used on DVDs
Title : English for [HI]
Language : English
Default : No
Forced : No

Text #3
ID : 6
Format : VobSub
Codec ID : S_VOBSUB
Codec ID/Info : The same subtitle format used on DVDs
Language : French
Default : No
Forced : No

Menu
00:00:00.000 : fr:Chapter 1
00:09:34.040 : fr:Chapter 2
00:19:09.120 : fr:Chapter 3
00:28:47.880 : fr:Chapter 4
00:39:18.200 : fr:Chapter 5
00:50:29.520 : fr:Chapter 6
00:59:43.280 : fr:Chapter 7
01:09:10.600 : fr:Chapter 8
01:22:07.120 : fr:Chapter 9
01:27:00.560 : fr:Chapter 10
01:37:52.360 : fr:Chapter 11
01:46:05.640 : fr:Chapter 12
01:53:55.920 : fr:Chapter 13
01:56:04.600 : fr:Chapter 14
















Боцман
Аватара пользователя
Korsar
Заслуженный Корсар-Вип
 
 

Награды: 31
За помощь проекту (2) Лучший по количеству кубков (1) За отличные раздачи и качество (13) За подробное оформление раздач (1) За отличные комментарии (1) Верный Сид (11) За участие в конкурсах/играх (2)
  • Торрент
Для скачивания торрента необходимо зарегистрироваться или войти на трекер.

Вернуться в Классика зарубежного кино (фильмы до 1980 года)



Uptime по данным Ping-Admin.Ru - сервиса мониторинга доступности сайтов
Рейтинг@Mail.ru