logo
Международный русскоязычный
торрент-трекер
Menu
Поделиться с друзьями: 
Голосуй за Корсар и получи 500 дублонов
Рейтинг торрент трекеров - UpTracker.ru

Волкодав из рода Серых Псов (2006, фэнтези, боевик, приключения, BDRip-HEVC 1080p) - KORSAR

Сообщение Cthulhu » 29 июн 2020, 19:07

Название: Волкодав из рода Серых Псов
Год выхода: 2006
Жанр: фэнтези, боевик, приключения
Режиссер: Николай Лебедев
В ролях: Александр Бухаров, Оксана Акиньшина, Александр Домогаров, Игорь Петренко, Юозас Будрайтис, Резо Эсадзе, Артем Семакин, Наталья Варлей, Татьяна Лютаева, Анатолий Белый

О фильме: Он был обречен на гибель, но выжил, чтобы отомстить за истребление своего рода. Последний человек из племени Серых Псов стал могучим воином, называющим себя Волкодав. Избежав смерти в подземных рудниках, Волкодав пускается в путь в сопровождении своего спутника, Нелетучего Мыша. Волкодав одержим желанием покарать Людоеда, уничтожившего деревню Серых Псов. Добравшись до замка заклятого врага, Волкодав жестоко расправляется с Людоедом. Там же он освобождает двух пленников, мудреца Тилорна и рабыню Ниилит. Вместе с ними Волкодав попадает в город Галирад, переживающий смутные времена. Кнес Галирада, стремясь спасти город от разорения, сватает свою дочь Елень за молодого воина Винитара, обещающего защиту Галираду.



Страна: Россия
Студия: Централ Партнершип
Продолжительность: 02:22:00
Перевод: Не требуется

Качество: BDRip-HEVC 1080p
Формат: MKV
Видео: HEVC, 1912x816, 9133 Кбит/с, 23.976 кадр/с, 10 бит
Звук:
Аудио1: Русская, AC3 640 Кбит/с, 6 канала(ов)
Аудио2: English, AC3 640 Кбит/с, 6 канала(ов)
Субтитры: Английские
Навигация по главам: Есть

x265 [info]: frame I: 2486, Avg QP:18.02 kb/s: 20328.41
x265 [info]: frame P: 38420, Avg QP:19.32 kb/s: 16448.64
x265 [info]: frame B: 163383, Avg QP:21.09 kb/s: 7241.38
x265 [info]: consecutive B-frames: 8.4% 1.2% 3.5% 25.5% 12.9% 39.2% 3.9% 2.5% 1.0% 0.8% 0.5%

General
Unique ID : 294841381170926638531569741468769934289 (0xDDD0626D8DC3D123CC336C7799035BD1)
Complete name : H:\HEVC4\Волкодав из рода Серых Псов (2006) BDRip-HEVC 1080p - KORSAR.mkv
Format : Matroska
Format version : Version 4 / Version 2
File size : 10.3 GiB
Duration : 2 h 22 min
Overall bit rate : 10.4 Mb/s
Movie name : Волкодав из рода Серых Псов (2006)_rip_by_Cthulhu
Encoded date : UTC 2020-05-19 22:59:44
Writing application : mkvmerge v46.0.0 ('No Deeper Escape') 64-bit
Writing library : libebml v1.3.10 + libmatroska v1.5.2
Cover : Yes
Attachments : cover7.jpg

Video
ID : 1
Format : HEVC
Format/Info : High Efficiency Video Coding
Format profile : Main 10@L4.1@High
Codec ID : V_MPEGH/ISO/HEVC
Duration : 2 h 22 min
Bit rate : 9 133 kb/s
Width : 1 912 pixels
Height : 816 pixels
Display aspect ratio : 2.35:1
Frame rate mode : Constant
Frame rate : 23.976 (24000/1001) FPS
Color space : YUV
Chroma subsampling : 4:2:0
Bit depth : 10 bits
Bits/(Pixel*Frame) : 0.244
Stream size : 9.06 GiB (88%)
Writing library : x265 3.3+2-gbe2d82093:[Windows][GCC 10.0.1][64 bit] 10bit
Encoding settings : cpuid=1111039 / frame-threads=4 / numa-pools=16 / wpp / no-pmode / no-pme / no-psnr / no-ssim / log-level=2 / input-csp=1 / input-res=1912x816 / interlace=0 / total-frames=204289 / level-idc=41 / high-tier=1 / uhd-bd=0 / ref=5 / no-allow-non-conformance / no-repeat-headers / annexb / no-aud / no-hrd / info / hash=0 / no-temporal-layers / open-gop / min-keyint=23 / keyint=240 / gop-lookahead=0 / bframes=10 / b-adapt=2 / b-pyramid / bframe-bias=0 / rc-lookahead=60 / lookahead-slices=1 / scenecut=40 / hist-scenecut=0 / radl=0 / no-splice / no-intra-refresh / ctu=32 / min-cu-size=8 / rect / amp / max-tu-size=32 / tu-inter-depth=4 / tu-intra-depth=4 / limit-tu=1 / rdoq-level=2 / dynamic-rd=0.00 / no-ssim-rd / signhide / no-tskip / nr-intra=0 / nr-inter=0 / no-constrained-intra / no-strong-intra-smoothing / max-merge=5 / limit-refs=3 / limit-modes / me=3 / subme=7 / merange=57 / temporal-mvp / no-frame-dup / hme / Level / merange / L0,L1,L2=16,32,57 / weightp / weightb / no-analyze-src-pics / deblock=-2:-2 / no-sao / no-sao-non-deblock / rd=6 / selective-sao=0 / no-early-skip / rskip / rskip-edge-threshold=0.050000 / no-fast-intra / no-tskip-fast / no-cu-lossless / b-intra / no-splitrd-skip / rdpenalty=0 / psy-rd=1.70 / psy-rdoq=1.00 / no-rd-refine / no-lossless / cbqpoffs=0 / crqpoffs=0 / rc=crf / crf=20.0 / qcomp=0.68 / qpstep=4 / stats-write=0 / stats-read=0 / vbv-maxrate=50000 / vbv-bufsize=50000 / vbv-init=0.9 / crf-max=0.0 / crf-min=0.0 / ipratio=1.40 / pbratio=1.30 / aq-mode=1 / aq-strength=1.00 / no-cutree / zone-count=0 / no-strict-cbr / qg-size=32 / no-rc-grain / qpmax=69 / qpmin=0 / no-const-vbv / sar=1 / overscan=0 / videoformat=5 / range=0 / colorprim=1 / transfer=1 / colormatrix=1 / chromaloc=0 / display-window=0 / cll=0,0 / min-luma=0 / max-luma=1023 / log2-max-poc-lsb=8 / vui-timing-info / vui-hrd-info / slices=1 / no-opt-qp-pps / no-opt-ref-list-length-pps / no-multi-pass-opt-rps / scenecut-bias=0.05 / hist-threshold=0.01 / no-opt-cu-delta-qp / no-aq-motion / no-hdr10 / no-hdr10-opt / no-dhdr10-opt / no-idr-recovery-sei / analysis-reuse-level=0 / analysis-save-reuse-level=0 / analysis-load-reuse-level=0 / scale-factor=0 / refine-intra=0 / refine-inter=0 / refine-mv=1 / refine-ctu-distortion=0 / no-limit-sao / ctu-info=0 / no-lowpass-dct / refine-analysis-type=0 / copy-pic=1 / max-ausize-factor=1.0 / no-dynamic-refine / no-single-sei / no-hevc-aq / no-svt / no-field / qp-adaptation-range=1.00 / no-scenecut-aware-qpconformance-window-offsets / right=0 / bottom=0
Language : Russian
Default : Yes
Forced : No
Color range : Limited
Color primaries : BT.709
Transfer characteristics : BT.709
Matrix coefficients : BT.709

Audio #1
ID : 2
Format : AC-3
Format/Info : Audio Coding 3
Commercial name : Dolby Digital
Codec ID : A_AC3
Duration : 2 h 21 min
Bit rate mode : Constant
Bit rate : 640 kb/s
Channel(s) : 6 channels
Channel layout : L R C LFE Ls Rs
Sampling rate : 48.0 kHz
Frame rate : 31.250 FPS (1536 SPF)
Bit depth : 16 bits
Compression mode : Lossy
Stream size : 650 MiB (6%)
Language : Russian
Service kind : Complete Main
Default : Yes
Forced : No

Audio #2
ID : 3
Format : AC-3
Format/Info : Audio Coding 3
Commercial name : Dolby Digital
Codec ID : A_AC3
Duration : 2 h 21 min
Bit rate mode : Constant
Bit rate : 640 kb/s
Channel(s) : 6 channels
Channel layout : L R C LFE Ls Rs
Sampling rate : 48.0 kHz
Frame rate : 31.250 FPS (1536 SPF)
Bit depth : 16 bits
Compression mode : Lossy
Stream size : 650 MiB (6%)
Language : English
Service kind : Complete Main
Default : No
Forced : No

Text
ID : 4
Format : UTF-8
Codec ID : S_TEXT/UTF8
Codec ID/Info : UTF-8 Plain Text
Duration : 2 h 13 min
Bit rate : 20 b/s
Count of elements : 693
Stream size : 19.7 KiB (0%)
Language : English
Default : No
Forced : No

Menu
00:00:00.000 : en:
00:07:17.854 : en:
00:11:49.375 : en:
00:14:35.165 : en:
00:19:08.230 : en:
00:24:34.890 : en:
00:30:20.026 : en:
00:37:31.040 : en:
00:45:22.469 : en:
00:50:50.505 : en:
00:54:43.446 : en:
01:04:55.182 : en:
01:14:08.402 : en:
01:24:05.582 : en:
01:29:35.328 : en:
01:40:03.455 : en:
01:46:16.328 : en:
01:54:54.804 : en:
02:00:23.299 : en:
02:08:56.478 : en:
02:15:40.132 : en:
02:21:29.481 : en:



Автор: Cthulhu
Просьба отключить блокировщики рекламы на странице скриншотов по адресу: http://3.lostpic.net/, этим Вы поможете существованию проекта. Заранее спасибо!
КУБКИ

СТАЖ

МЕДАЛИ
Награды:112

Пожизненный VIP+ (2) За активную помощь проекту (18) Лучший по количеству кубков (2) За отличные раздачи и качество (58) За подробное оформление раздач (1) За отличные комментарии (7) Почётный форумчанин (3) Верный Сид (20)

Аватара пользователя
СССР
Cthulhu
Помощник Администратора-Корсар
Раздачи группы KORSAR разрешено перезаливать спустя 7 дней после публикации и с обязательным добавлением банера
  • Торрент
Для скачивания торрента необходимо зарегистрироваться или войти на трекер.

Сообщение kwazar312 » 30 июн 2020, 10:40

Читал Семенову, даже совместные с Константиновым произведения. Могу сказать, что «Волкодав» — просто супер! Лучшего актера, чем Бухаров на роль Волкодава нельзя и желать. Руденский в роли Тилорна — супер! Оксана Акиньшина — замечательная кнесинка (она себя реабилитировала этой ролью).
Нина Усатова — это что то! Варлей и Лютаева — неузнаваемы (в Штатах за это Оскар дают). Петренко — как всегда не разочаровал. Звезда экрана — Нелетучий Мышь! Рыбников — гений! Лебедеву отдельно огромное спасибо! (Бекмамбетов с Эрнстом нервно курят в углу)
Наконец-то у нас есть своё большое кино, не пародия на западные лубочные картинки и не «чернуха» типа «Бой с тенью» и «Бумер», а добрый фильм, не приторно, а правдиво добрый (хотя по книге хэппи энда все же не было).
Уважаемые актеры и создатели фильма! Не принимайте близко к сердцу все негативные выпады в адрес фильма. Фильм чудесный. Уступает «Властелину колец» только бюджетом и съемками сцен битв (был все же недочет, камера трясется).
Уважаемый Cthulhu,спасибо за фильм в таком формате.Вы,как всегда,на высоте.
:hi: :preved: :good:
КУБКИ

СТАЖ

МЕДАЛИ
Награды:148

Пожизненный VIP+ (3) За активную помощь проекту (14) Лучший по количеству кубков (46) За отличные раздачи и качество (3) За отличные комментарии (26) Почётный форумчанин (1) Верный Сид (49) За участие в конкурсах/играх (6)

Аватара пользователя
kwazar312
Заслуженный Корсар-Вип+

Сообщение Gobrya » 30 июн 2020, 17:59

За рип большое спасибо! Ну а фильм конечно что-то свое, оторван от книги. Очень много перекроили. Игра актеров хорошая. Сериал молодой волкодав будет лучше, чем фильм, хотя нет такого масштаба конечно.
КУБКИ

СТАЖ

МЕДАЛИ
Награды:4

За помощь проекту в 200 рублей (1) За помощь проекту в 300 рублей (1) Почётный форумчанин (1) Верный Сид (1)

Аватара пользователя
Russia
Gobrya
Уважаемый Корсар


Вернуться в Фильмы HEVC (HEVC Video)



Uptime по данным Ping-Admin.Ru - сервиса мониторинга доступности сайтов
Рейтинг@Mail.ru