logo
Международный русскоязычный
торрент-трекер
Menu

Doublon
Поделиться с друзьями: 
Голосуй за Корсар и получи 400 дублонов
Рейтинг торрент трекеров - UpTracker.ru

Военный парад, посвящённый 73-й годовщине Победы в Великой Отечественной войне 1941-1945 годов. (2018, Военный парад, HDTV 1080i)

Сообщение Gogen » 09 май 2018, 18:14

Военный парад, посвящённый 73-й годовщине Победы в Великой Отечественной войне 1941-1945 годов.

Год выпуска: 2018
Страна: Россия
Студия: ВГТРК, Россия 1 HD
Жанр: Военный парад
Продолжительность: 01:32:21
Перевод: Не требуется

Описание: Утро праздничного дня, 9 мая, начинается с прямой трансляции Парада, посвящённого 73-й годовщине Победы в Великой Отечественной войне. По главной площади страны пройдут более 10 тысяч военнослужащих, будет задействовано свыше 100 единиц военной техники, среди которой новейшие танки "Армата", самоходные гаубицы, бронетранспортёры и др.

качество: HDTV 1080i
формат: TS
Видео кодек: H.264
Аудио кодек: MP2
Видео: H264; 1920x1080 (16:9); 25.000 fps; ~12.2 Mb/s
Аудио: MPEG Audio 48000Hz stereo 192 Кбит/сек

General
ID : 1 (0x1)
Complete name : F:\Behold TV 222\Военный парад 2018.05.09.ts
Format : MPEG-TS
File size : 8.44 GiB
Duration : 1 h 32 min
Overall bit rate mode : Variable
Overall bit rate : 13.1 Mb/s
Video
ID : 206 (0xCE)
Menu ID : 20106 (0x4E8A)
Format : AVC
Format/Info : Advanced Video Codec
Format profile : High@L4
Format settings : CABAC / 4 Ref Frames
Format settings, CABAC : Yes
Format settings, RefFrames : 4 frames
Codec ID : 27
Duration : 1 h 32 min
Bit rate : 12.2 Mb/s
Width : 1 920 pixels
Height : 1 080 pixels
Display aspect ratio : 16:9
Frame rate : 25.000 FPS
Standard : Component
Color space : YUV
Chroma subsampling : 4:2:0
Bit depth : 8 bits
Scan type : Interlaced
Scan type, store method : Separated fields
Scan order : Top Field First
Bits/(Pixel*Frame) : 0.236
Stream size : 7.90 GiB (94%)
Color range : Limited
Color primaries : BT.709
Transfer characteristics : BT.709
Matrix coefficients : BT.709
Audio
ID : 306 (0x132)
Menu ID : 20106 (0x4E8A)
Format : MPEG Audio
Format version : Version 1
Format profile : Layer 2
Codec ID : 3
Duration : 1 h 32 min
Bit rate mode : Constant
Bit rate : 192 kb/s
Channel(s) : 2 channels
Sampling rate : 48.0 kHz
Compression mode : Lossy
Stream size : 127 MiB (1%)
Language : Russian
КУБКИ

СТАЖ

МЕДАЛИ
Награды:42

Лучший по количеству кубков (14) За отличные раздачи и качество (21) За подробное оформление раздач (1) Верный Сид (2)

Аватара пользователя
Russia
Gogen
Заслуженный Релизёр-Корсар
  • Торрент
Для скачивания торрента необходимо зарегистрироваться или войти на трекер.

Вернуться в Военное дело (HD Video)



Uptime по данным Ping-Admin.Ru - сервиса мониторинга доступности сайтов
Рейтинг@Mail.ru Голосуйте за наш сайт в каталоге Rubo.Ru