logo
Международный русскоязычный
торрент-трекер
Menu
"Бунт на корабле", за скачанные торрент-файлы дублоны не снимаются. Возможность оплачена пользователем glazik9090.
Doublon
Поделиться с друзьями: 
Голосуй за Корсар и получи 500 дублонов
Рейтинг торрент трекеров - UpTracker.ru

Водный мир / Waterworld (1995, Фантастика, боевик, приключения, BDRip-HEVC 1080p) - KORSAR | The Ulysses Cut

Сообщение Cthulhu » 20 фев 2019, 20:12

Название: Водный мир
Оригинальное название: Waterworld
Год выпуска: 1995
Жанр: Фантастика, боевик, приключения
Режиссер: Кевин Рейнольдс
В ролях: Кевин Костнер, Сэб Шимоно, Дэннис Хоппер, Джинн Трипплхорн, Тина Мэйджорино, Майкл Джитер, Джерард Мерфи, Р Д Колл, Ким Коутс, Джон Флек, Роберт Джой, Джек Блэк, Джон Тоулз-Бей, Зитто Кэзанн, Зэйкс Мокэй, Роберт Ласардо

О фильме: В далеком будущем полярные снега растаяли, покрыв всю Землю водой. Авторы погружают нас в фантастический мир немногочисленных людей, живущих на воде, где самым дорогим являются пресная вода, земля, еда, сигареты и т. п. «Курильщики» убивают, грабят, обращают в рабство — используют двигатели внутреннего сгорания. Все остальные пытаются выжить, кто как может, а Кевин Костнер плавает сам по себе на своей фантастической лодке, но объединяет их всех одно — все они ищут остров. В одной из колоний живут очень красивая женщина и девочка с татуировкой на спине. А татуировка эта — часть карты, на которой и указан этот остров. Естественно, за ней и охотятся «курильщики»…



Страна: США
Студия: Davis Entertainment, Gordon Company, Licht/Mueller Film Corporation, Universal Pictures
Продолжительность: 02:57:13
Перевод: Профессиональный многоголосый, авторский одноголосый

Кодек: HEVC x265
Качество: BDRip-HEVC 1080p
Видео: 1920x1036 (1.85:1), 13.3 Мбит/сек, 0.278 бит/(Пиксели*Кадры), 23.976 (24000/1001) кадр/сек, HEVC (Main10@L.4.1@High) 10 бит
Звук:
Аудио1: Русская, AC3 640 Кбит/сек, 6 канала(ов),16bit 48,0 КГц Многоголосый (СВ Студия)
Аудио2: Русская, AC3 448 Кбит/сек, 6 канала(ов),16bit 48,0 КГц Многоголосый (С.Р.И / Кравец)
Аудио3: Русская, AC3 384 Кбит/сек, 6 канала(ов),16bit 48,0 КГц Многоголосый (Киномания)
Аудио4: Русская, AC3 640 Кбит/сек, 6 канала(ов),16bit 48,0 КГц Одноголосый (Живов)
Аудио5: Русская, AC3 640 Кбит/сек, 6 канала(ов),16bit 48,0 КГц Одноголосый (Гаврилов)
Аудио6: Русская, AC3 384 Кбит/сек, 6 канала(ов),16bit 48,0 КГц Одноголосый (Немахов)
Аудио7: English, AC3 640 Кбит/сек, 6 канала(ов),16bit 48,0 КГц (Original)
Субтитры: Русские, English
Навигация по главам: Есть

Дорога СВ Студия доступна благодаря проекту Озвучивание. Спонсоры: BERILL, GRONHOLD, kinoved72, Serenkiy, krat11, stimco, tambov68, n1ko1as, DParfenov, budulay, fess_master, mvch73, Romanych_777, maksnew, donpedro70, Superbizho, goriathid, alexeycezar, SnowSquirrel, uncasual, bsp83, lokis83, igrok2012, Asmodai, Holms, aleks0614, Jonnikl, OLURI, Niflung, balshik, Alexz, twiceaday, viryzhkov, foxGmalder, irrlicht, zlodei24, hdrmv12, thunder, sn68bel, gelom, VitVil, ikstu, boris425, MamonTSan, Mister_Yarik, kimi, Sini, bma72, unitedbits.
Каст СВ Студии: Даниил Эльдаров, Артем Маликов, Наталья Грачёва, Анастасия Садовская, Александр Груздев, Александр Хошабаев, Михаил Белякович.

Дорога Ю.Живова доступна благодаря следующим спонсорам: Pavlik-Povar, rushat, Semenych, C_A_H_E_K, Gross1978, ALEX150379, chontvari, fly32, PiratGary1980, Semvlk, Партизан, barvinok13, Django T120, vovyanskiy, AndreyTula, Dragtwin, Cyberclean, Amor7, instructor1984, Danil6300, dir, Volshebnik, river, Iceman, -Holo-, GRONHOLD, tambov68, chernila, Valen, Petro0999, ANISKIN50, User, xaxara, Letyoha3.

В дорогах Гаврилова и Немахова присутствуют вставки на расширенные места из Живова. В многоголосках вставки из СВ Студии.
Сборка дорог Живова и Гаврилова - Spiellberg


x265 [info]: frame I: 2611, Avg QP:18.45 kb/s: 36745.96
x265 [info]: frame P: 56279, Avg QP:20.08 kb/s: 25181.38
x265 [info]: frame B: 196038, Avg QP:22.20 kb/s: 9515.32
x265 [info]: consecutive B-frames: 6.6% 3.8% 6.2% 47.4% 10.1% 23.3% 1.4% 0.8% 0.1% 0.1% 0.2%

General
Unique ID : 266894068438362593781404270333298522308 (0xC8C9ED86D28E75F0EC5CC127E030B8C4)
Complete name : T:\HEVC3\Waterworld. The Ulysses Cut (1995) BDRip-HEVC 1080p - KORSAR.mkv
Format : Matroska
Format version : Version 4 / Version 2
File size : 21.1 GiB
Duration : 2 h 57 min
Overall bit rate : 17.0 Mb/s
Movie name : Waterworld. The Ulysses Cut (1995)_rip_by_Cthulhu
Encoded date : UTC 2019-03-14 19:39:34
Writing application : mkvmerge v28.2.0 ('The Awakening') 64-bit
Writing library : libebml v1.3.6 + libmatroska v1.4.9
Cover : Yes
Attachments : cover.jpg

Video
ID : 1
Format : HEVC
Format/Info : High Efficiency Video Coding
Format profile : Main 10@L4.1@High
Codec ID : V_MPEGH/ISO/HEVC
Duration : 2 h 57 min
Bit rate : 13.3 Mb/s
Width : 1 920 pixels
Height : 1 036 pixels
Display aspect ratio : 1.85:1
Frame rate mode : Constant
Frame rate : 23.976 (23976/1000) FPS
Original frame rate : 23.976 (24000/1001) FPS
Color space : YUV
Chroma subsampling : 4:2:0
Bit depth : 10 bits
Bits/(Pixel*Frame) : 0.278
Stream size : 16.4 GiB (78%)
Writing library : x265 3.0_Au+3-5b90dc59b57a:[Windows][GCC 9.0.1][64 bit] 10bit
Encoding settings : cpuid=1176575 / frame-threads=4 / numa-pools=16 / wpp / no-pmode / no-pme / no-psnr / no-ssim / log-level=2 / input-csp=1 / input-res=1920x1036 / interlace=0 / total-frames=254928 / level-idc=41 / high-tier=1 / uhd-bd=0 / ref=4 / no-allow-non-conformance / no-repeat-headers / annexb / no-aud / no-hrd / info / hash=0 / no-temporal-layers / open-gop / min-keyint=23 / keyint=240 / gop-lookahead=0 / bframes=10 / b-adapt=2 / b-pyramid / bframe-bias=0 / rc-lookahead=60 / lookahead-slices=4 / scenecut=40 / radl=0 / no-splice / no-intra-refresh / ctu=32 / min-cu-size=8 / rect / amp / max-tu-size=32 / tu-inter-depth=4 / tu-intra-depth=4 / limit-tu=1 / rdoq-level=2 / dynamic-rd=0.00 / no-ssim-rd / signhide / no-tskip / nr-intra=0 / nr-inter=0 / no-constrained-intra / no-strong-intra-smoothing / max-merge=5 / limit-refs=1 / limit-modes / me=3 / subme=7 / merange=57 / temporal-mvp / weightp / weightb / no-analyze-src-pics / deblock=-3:-3 / no-sao / no-sao-non-deblock / rd=6 / no-early-skip / rskip / no-fast-intra / no-tskip-fast / no-cu-lossless / b-intra / no-splitrd-skip / rdpenalty=0 / psy-rd=1.00 / psy-rdoq=1.00 / no-rd-refine / no-lossless / cbqpoffs=0 / crqpoffs=0 / rc=crf / crf=19.0 / qcomp=0.80 / qpstep=4 / stats-write=0 / stats-read=0 / vbv-maxrate=50000 / vbv-bufsize=50000 / vbv-init=0.9 / crf-max=0.0 / crf-min=0.0 / ipratio=1.40 / pbratio=1.30 / aq-mode=1 / aq-strength=0.60 / no-cutree / zone-count=1 / zones: / start-frame=244832 / end-frame=254927 / qp=35 / no-strict-cbr / qg-size=32 / no-rc-grain / qpmax=69 / qpmin=0 / no-const-vbv / sar=1 / overscan=0 / videoformat=5 / range=0 / colorprim=1 / transfer=1 / colormatrix=1 / chromaloc=0 / display-window=0 / max-cll=0,0 / min-luma=0 / max-luma=1023 / log2-max-poc-lsb=8 / vui-timing-info / vui-hrd-info / slices=1 / no-opt-qp-pps / no-opt-ref-list-length-pps / no-multi-pass-opt-rps / scenecut-bias=0.05 / no-opt-cu-delta-qp / no-aq-motion / no-hdr / no-hdr-opt / no-dhdr10-opt / no-idr-recovery-sei / analysis-reuse-level=5 / scale-factor=0 / refine-intra=0 / refine-inter=0 / refine-mv=0 / refine-ctu-distortion=0 / no-limit-sao / ctu-info=0 / no-lowpass-dct / refine-analysis-type=0 / copy-pic=1 / max-ausize-factor=1.0 / no-dynamic-refine / no-single-sei / hevc-aq / qp-adaptation-range=2.00
Language : English
Default : Yes
Forced : No
Color range : Limited
Color primaries : BT.709
Transfer characteristics : BT.709
Matrix coefficients : BT.709

Audio #1
ID : 2
Format : AC-3
Format/Info : Audio Coding 3
Mode extension : CM (complete main)
Format settings, Endianness : Big
Codec ID : A_AC3
Duration : 2 h 57 min
Bit rate mode : Constant
Bit rate : 640 kb/s
Channel(s) : 6 channels
Channel positions : Front: L C R, Side: L R, LFE
Sampling rate : 48.0 kHz
Frame rate : 31.250 FPS (1536 spf)
Compression mode : Lossy
Stream size : 811 MiB (4%)
Title : MVO СВ Студия
Language : Russian
Default : Yes
Forced : No

Audio #2
ID : 3
Format : AC-3
Format/Info : Audio Coding 3
Mode extension : CM (complete main)
Format settings, Endianness : Big
Codec ID : A_AC3
Duration : 2 h 57 min
Bit rate mode : Constant
Bit rate : 448 kb/s
Channel(s) : 6 channels
Channel positions : Front: L C R, Side: L R, LFE
Sampling rate : 48.0 kHz
Frame rate : 31.250 FPS (1536 spf)
Compression mode : Lossy
Stream size : 568 MiB (3%)
Title : MVO С.Р.И / Кравец
Language : Russian
Default : No
Forced : No

Audio #3
ID : 4
Format : AC-3
Format/Info : Audio Coding 3
Mode extension : CM (complete main)
Format settings, Endianness : Big
Codec ID : A_AC3
Duration : 2 h 57 min
Bit rate mode : Constant
Bit rate : 384 kb/s
Channel(s) : 6 channels
Channel positions : Front: L C R, Side: L R, LFE
Sampling rate : 48.0 kHz
Frame rate : 31.250 FPS (1536 spf)
Compression mode : Lossy
Stream size : 487 MiB (2%)
Title : MVO Киномания
Language : Russian
Default : No
Forced : No

Audio #4
ID : 5
Format : AC-3
Format/Info : Audio Coding 3
Mode extension : CM (complete main)
Format settings, Endianness : Big
Codec ID : A_AC3
Duration : 2 h 57 min
Bit rate mode : Constant
Bit rate : 640 kb/s
Channel(s) : 6 channels
Channel positions : Front: L C R, Side: L R, LFE
Sampling rate : 48.0 kHz
Frame rate : 31.250 FPS (1536 spf)
Compression mode : Lossy
Stream size : 811 MiB (4%)
Title : AVO Живов
Language : Russian
Default : No
Forced : No

Audio #5
ID : 6
Format : AC-3
Format/Info : Audio Coding 3
Mode extension : CM (complete main)
Format settings, Endianness : Big
Codec ID : A_AC3
Duration : 2 h 57 min
Bit rate mode : Constant
Bit rate : 640 kb/s
Channel(s) : 6 channels
Channel positions : Front: L C R, Side: L R, LFE
Sampling rate : 48.0 kHz
Frame rate : 31.250 FPS (1536 spf)
Compression mode : Lossy
Stream size : 811 MiB (4%)
Title : AVO Гаврилов
Language : Russian
Default : No
Forced : No

Audio #6
ID : 7
Format : AC-3
Format/Info : Audio Coding 3
Mode extension : CM (complete main)
Format settings, Endianness : Big
Codec ID : A_AC3
Duration : 2 h 57 min
Bit rate mode : Constant
Bit rate : 384 kb/s
Channel(s) : 6 channels
Channel positions : Front: L C R, Side: L R, LFE
Sampling rate : 48.0 kHz
Frame rate : 31.250 FPS (1536 spf)
Compression mode : Lossy
Stream size : 487 MiB (2%)
Title : AVO Немахов
Language : Russian
Default : No
Forced : No

Audio #7
ID : 8
Format : AC-3
Format/Info : Audio Coding 3
Mode extension : CM (complete main)
Format settings, Endianness : Big
Codec ID : A_AC3
Duration : 2 h 57 min
Bit rate mode : Constant
Bit rate : 640 kb/s
Channel(s) : 6 channels
Channel positions : Front: L C R, Side: L R, LFE
Sampling rate : 48.0 kHz
Frame rate : 31.250 FPS (1536 spf)
Compression mode : Lossy
Stream size : 811 MiB (4%)
Title : Original
Language : English
Default : No
Forced : No

Text #1
ID : 9
Format : UTF-8
Codec ID : S_TEXT/UTF8
Codec ID/Info : UTF-8 Plain Text
Duration : 2 h 48 min
Bit rate : 57 b/s
Count of elements : 1506
Stream size : 71.2 KiB (0%)
Language : Russian
Default : No
Forced : No

Text #2
ID : 10
Format : UTF-8
Codec ID : S_TEXT/UTF8
Codec ID/Info : UTF-8 Plain Text
Duration : 2 h 46 min
Bit rate : 35 b/s
Count of elements : 1384
Stream size : 43.3 KiB (0%)
Language : English
Default : No
Forced : No

Text #3
ID : 11
Format : UTF-8
Codec ID : S_TEXT/UTF8
Codec ID/Info : UTF-8 Plain Text
Duration : 2 h 47 min
Bit rate : 37 b/s
Count of elements : 1475
Stream size : 45.6 KiB (0%)
Title : SDH
Language : English
Default : No
Forced : No

Menu
00:00:00.000 : en:Chapter 1
00:09:56.137 : en:Chapter 2
00:23:40.336 : en:Chapter 3
00:35:22.037 : en:Chapter 4
00:50:23.312 : en:Chapter 5
01:04:59.604 : en:Chapter 6
01:27:51.516 : en:Chapter 7
01:41:14.819 : en:Chapter 8
02:05:47.123 : en:Chapter 9
02:15:10.853 : en:Chapter 10
02:25:46.905 : en:Chapter 11
02:37:42.453 : en:Chapter 12




Автор: Cthulhu
КУБКИ

СТАЖ

МЕДАЛИ
Награды:49

За помощь проекту (9) Лучший по количеству кубков (1) За отличные раздачи и качество (22) За отличные комментарии (2) Почётный форумчанин (2) Верный Сид (11)

Аватара пользователя
СССР
Cthulhu
Главный Модератор-Корсар
Раздачи группы KORSAR разрешено перезаливать спустя сутки после публикации, с обязательным добавлением банера, или указанием группы в заголовке раздачи
  • Торрент
Для скачивания торрента необходимо зарегистрироваться или войти на трекер.

Сообщение Uhtq » 21 фев 2019, 05:25

Отличное кино в шикарном качестве! :hi:
Большое спасибо за релиз! :10 balov:
КУБКИ

СТАЖ

МЕДАЛИ
Награды:4

За отличные комментарии (4)

Аватара пользователя
Russia
Uhtq
Опытный Корсар

Сообщение Lonrak1975 » 02 мар 2019, 20:56

Классика постапокалиптики :good:
А какие цвета! Синий океан и оранжевые взрывы!
Люди плывут на самодельном корабле, в мире где нет суши, а вокруг безысходность и бесконечный океан.
Актеры играют весьма убедительно и хорошо.
Кевин Костнер просто шикарен, я с трудом представляю кого-то другого на эту роль, настолько он в нее вжился.
«Водный мир» смотрится легко, на одном дыхании и безумно интересно наблюдать что же будет дальше.
Одним словом Классика.Красивая и шикарная :bravo:
Тем,кто не видел-посмотрите,не пожалеете.
От меня безусловно :10 balov:
Ну и большое спасибо Cthulhu за отличный рип :hi: :good: :good: :good:
КУБКИ

СТАЖ

МЕДАЛИ
Награды:15

За отличные комментарии (15)

Аватара пользователя
СССР
Lonrak1975
Уважаемый Корсар

Сообщение Cthulhu » 14 мар 2019, 23:12

Раздача обновлена. Добавлены звуковые дороги: СВ Студия, Живов, Гаврилов, Немахов.
КУБКИ

СТАЖ

МЕДАЛИ
Награды:49

За помощь проекту (9) Лучший по количеству кубков (1) За отличные раздачи и качество (22) За отличные комментарии (2) Почётный форумчанин (2) Верный Сид (11)

Аватара пользователя
СССР
Cthulhu
Главный Модератор-Корсар


Вернуться в Фильмы HEVC (HEVC Video)



Uptime по данным Ping-Admin.Ru - сервиса мониторинга доступности сайтов
Рейтинг@Mail.ru