logo
Международный русскоязычный
торрент-трекер
Menu
"Бунт на корабле", за скачанные торрент-файлы дублоны не снимаются. Возможность оплачена пользователем tarik.
Doublon
Поделиться с друзьями: 
Голосуй за Корсар и получи 500 дублонов
Рейтинг торрент трекеров - UpTracker.ru

Вий (1967, ужасы, фэнтези, драма, BDRemux 1080p) | US Transfer

Сообщение kisa1980 » 10 ноя 2019, 21:42

Название: Вий
Год выпуска: 1967
Жанр: Ужасы, фэнтези, драма
Режиссер: Александр Птушко, Георгий Кропачев, Константин Ершов
В ролях: Леонид Куравлёв, Наталья Варлей, Алексей Глазырин, Николай Кутузов, Вадим Захарченко, Петр Вескляров, Владимир Сальников, Дмитрий Капка, Степан Шкурат, Георгий Сочевко

Описание: Студент-философ Хома Брут по определённому стечению обстоятельств убивает ведьму, которая после смерти обеорачивается молодой красивой девушкой. После этого он отправляется на отпевание – умерла молодая красивая девушка, панночка. Хома должен провести у гроба умершей несколько ночей в старой церкви. Невероятным образом панночка оказывается той самой ведьмой, которая, разумеется, собирается отомстить студенту. Мистическая фантазия, родившаяся в воображении Гоголя ничуть не устарела, не потеряла своей яркости и вовсе не спроста называется фильмом ужасов. И бурсаку Хоме Бруту - как и нам с вами - придётся натерпеться страху, пока гуляет в украинской ночи неугомонная нечисть.



Страна: СССР
Студия: Луч, Мосфильм
Продолжительность: 01:16:35
Перевод: Не требуется

Качество: BDRemux 1080p
Контейнер: MKV
Видео: MPEG-4 AVC / 1920x1080 / 34478 kbps / 23.976 fps / 1.37:1
Аудио: Russian: DTS-HD MA 2.0 / 1856 kbps / 48 kHz / 24 bit
Субтитры: Русские, английские
Навигация по главам: Есть

Цифровая реставрация изображения и звука (Киноконцерн «Мосфильм», 2018 г.);
Исходник предоставил пользователь нашего трекера, пожелавший остаться неизвестным.
Общее
Уникальный идентификатор : 253136639933398117830281299606210601146 (0xBE7057EEC26B76357C5C89A76AFBE0BA)
Полное имя : E:\MEDIA\Viy.1967.Severin.Films.BDRemux.1080p-rutracker.mkv
Формат : Matroska
Версия формата : Version 4
Размер файла : 19,4 Гбайт
Продолжительность : 1 ч. 16 м.
Режим общего битрейта : Переменный
Общий поток : 36,3 Мбит/сек
Название фильма : Вий / 1967 / Severin Films
Дата кодирования : UTC 2019-10-30 15:59:10
Программа кодирования : mkvmerge v38.0.0 ('The Silent Type') 64-bit
Библиотека кодирования : libebml v1.3.9 + libmatroska v1.5.2
Обложка : Yes
Attachments : cover.jpg

Видео
Идентификатор : 1
Формат : AVC
Формат/Информация : Advanced Video Codec
Профиль формата : High@L4.1
Настройки формата : CABAC / 4 Ref Frames
Параметр CABAC формата : Да
Параметр RefFrames формата : 4 кадра
Параметр GOP формата : M=3, N=24
Идентификатор кодека : V_MPEG4/ISO/AVC
Продолжительность : 1 ч. 16 м.
Вид битрейта : Постоянный
Битрейт : 35,0 Мбит/сек
Ширина : 1920 пикселей
Высота : 1080 пикселей
Соотношение сторон : 16:9
Режим частоты кадров : Постоянный
Частота кадров : 23,976 (24000/1001) кадра/сек
Стандарт вещания : NTSC
Цветовое пространство : YUV
Субдискретизация насыщенности : 4:2:0
Битовая глубина : 8 бит
Тип развёртки : Прогрессивная
Бит/(Пиксели*Кадры) : 0.704
Размер потока : 18,4 Гбайт (95%)
Заголовок : Вий / MPEG-4 AVC @ 34478 kbps
Язык : Russian
Default : Да
Forced : Нет
Цветовой диапазон : Limited
Основные цвета : BT.709
Характеристики трансфера : BT.709
Коэффициенты матрицы : BT.709

Аудио
Идентификатор : 2
Формат : DTS XLL
Формат/Информация : Digital Theater Systems
Коммерческое название : DTS-HD Master Audio
Идентификатор кодека : A_DTS
Продолжительность : 1 ч. 16 м.
Вид битрейта : Переменный
Битрейт : 1856 Кбит/сек
Каналы : 2 канала
ChannelLayout : L R
Частота : 48,0 КГц
Частота кадров : 93,750 кадра/сек (512 SPF)
Битовая глубина : 24 бит
Метод сжатия : Без потерь
Размер потока : 1017 Мбайт (5%)
Заголовок : DTS-HD MA 2.0 @ 1856 kbps
Язык : Russian
Default : Да
Forced : Нет

Текст #1
Идентификатор : 3
Формат : UTF-8
Идентификатор кодека : S_TEXT/UTF8
Идентификатор кодека/Информация : UTF-8 Plain Text
Продолжительность : 1 ч. 14 м.
Битрейт : 46 бит/сек
ElementCount : 471
Размер потока : 25,3 Кбайт (0%)
Заголовок : Мосфильм
Язык : Russian
Default : Нет
Forced : Нет

Текст #2
Идентификатор : 4
Формат : UTF-8
Идентификатор кодека : S_TEXT/UTF8
Идентификатор кодека/Информация : UTF-8 Plain Text
Продолжительность : 1 ч. 15 м.
Битрейт : 30 бит/сек
ElementCount : 472
Размер потока : 17,0 Кбайт (0%)
Заголовок : Severin Films
Язык : English
Default : Нет
Forced : Нет

Текст #3
Идентификатор : 5
Формат : UTF-8
Идентификатор кодека : S_TEXT/UTF8
Идентификатор кодека/Информация : UTF-8 Plain Text
Продолжительность : 1 ч. 15 м.
Битрейт : 47 бит/сек
ElementCount : 896
Размер потока : 26,2 Кбайт (0%)
Заголовок : Severin Films (SDH)
Язык : English
Default : Нет
Forced : Нет

Меню
00:00:00.000 : ru:Титры / Начало каникул в семинарии
00:05:28.203 : ru:Поиски ночлега
00:12:04.306 : ru:Мистические приключения
00:15:27.885 : ru:Приказ ректора
00:18:38.992 : ru:В дороге
00:28:11.188 : ru:Последнее желание панночки
00:32:17.601 : ru:Прощание с покойной
00:39:10.054 : ru:Первая ночь в церкви
00:46:03.217 : ru:Наутро
00:50:07.168 : ru:Кошмары второй ночи
00:55:33.911 : ru:"Музыкантов! Непременно музыкантов!"
00:57:18.015 : ru:Разговор с паном сотником
01:01:36.315 : ru:Побег не удался...
01:05:55.699 : ru:Чертовщина третьей ночи
01:13:08.005 : ru:Эпилог. Поминание Хомы Брута

JPN Transfer

US Transfer
КУБКИ

СТАЖ

МЕДАЛИ
Награды:109

За активную помощь проекту (10) Лучший по количеству кубков (3) За отличные раздачи и качество (37) За подробное оформление раздач (6) За отличные комментарии (9) Почётный форумчанин (12) Верный Сид (28) За участие в конкурсах/играх (2)

Аватара пользователя
Тортуга
kisa1980
Главный помощник Администратора-Корсар
  • Торрент
Для скачивания торрента необходимо зарегистрироваться или войти на трекер.

Сообщение kisa1980 » 10 ноя 2019, 22:03

Новая реставрация: http://www.framecompare.com/image-compa ... n/J1B9FNNU :hi:
КУБКИ

СТАЖ

МЕДАЛИ
Награды:109

За активную помощь проекту (10) Лучший по количеству кубков (3) За отличные раздачи и качество (37) За подробное оформление раздач (6) За отличные комментарии (9) Почётный форумчанин (12) Верный Сид (28) За участие в конкурсах/играх (2)

Аватара пользователя
Тортуга
kisa1980
Главный помощник Администратора-Корсар

Сообщение kwazar312 » 11 ноя 2019, 11:56

Фильм «Вий» один из самых страшных и жутких. Лично для меня это действительно так. Впервые я посмотрел его с родителями лет в 8. Так страшно мне не было никогда. Эти черти, этот круг, который выводит герой Куравлева, эти страшные лица, которые мелькают на экране, эта старуха, превратившаяся в прекрасную панночку… Все это до сих пор внушает ужас.Но самое страшное для меня в этом фильме-сама панночка. Наталья Варлей просто неподражаема в этой роли. Длинные темные волосы, бледная кожа, венок на голове и это ее белое платье — это и есть все спецэффекты. Есть еще, конечно, Вий и черти, есть полеты на горбу у старой ведьмы, есть скатившаяся и вмиг исчезнувшая кровяная слеза. Над этим может только посмеяться современное поколение. Они уже не способны прочувствовать саму атмосферу фильма, весь его ужас.
Сама картина исполнена на все 100.Это 100% Гоголь.
Ни одна современная интерпретация рассказов Николая Васильевича не сравнится с тем, что делали в СССР.
Возможно, тогда умели находить тот самый смысл произведения.
Это не пустая картина. Она не перегружена спецэффектами, графикой или жуткими компьютерными монстрами. Но эти самые простые вещи (круг, начерченный мелом, жуткая музыка, панночка, лежащая в гробу и уже поседевший Хома) внушают ужас до сих пор.
Большое спасибо за гениальную экранизацию Н.В.Гоголя в таком формате.
:hi: :good: :good:
КУБКИ

СТАЖ

МЕДАЛИ
Награды:133

За активную помощь проекту (13) Лучший по количеству кубков (40) За отличные раздачи и качество (3) За отличные комментарии (22) Почётный форумчанин (4) Верный Сид (45) За участие в конкурсах/играх (6)

Аватара пользователя
kwazar312
Заслуженный Корсар-Вип


Вернуться в Кино времён СССР (HD Video)



Uptime по данным Ping-Admin.Ru - сервиса мониторинга доступности сайтов
Рейтинг@Mail.ru