logo
Международный русскоязычный
торрент-трекер
Menu

Doublon
Поделиться с друзьями: 
Голосуй за Корсар и получи 150 дублонов
Рейтинг торрент трекеров - UpTracker.ru

Выстоять и добиться / Stand and Deliver (1988, Драма, WEB-DL 1080p) - KORSAR

Сообщение mzma » 13 июн 2018, 13:13

Название: Выстоять и добиться / Выстоять и сделать
Оригинальное название: Stand and Deliver
Год выпуска: 1988
Выпущено: США, American Playhouse, Olmos Productions, Warner Bros.
Жанр: Драма, реальные события
Режиссер: Рамон Менендез
В ролях: Эдвард Джеймс Олмос, Лу Даймонд Филлипс, Эстелль Харрис, Энди Гарсиа, Марк Фелан, Вирджиния Пэрис, Марк Элиот, Аделаида Алварез, Патрик Бака, Ингрид Олиу, Кармен Ардженциано

О фильме: Хайми Эскаланте, учитель математики, преподаёт в школе для детей из неблагополучных семей. Хайми уверен, что, несмотря на то, что его ученики курят и состоят в различных бандах и группировках, они очень способные ребята. Он ставит перед собой цель вывести их в люди, чтобы они могли получить достойное образование и вырваться из бандитской среды...



Продолжительность: 01:43:14
Перевод: Авторский
Субтитры: Английские
Навигация по главам: Есть

Качество: WEB-DL 1080p
Видео: MPEG-4 AVC, 14,3 Мбит/сек, 1920x1080, 23,976 кадра/сек
Аудио #1: AC3, 2 ch, 192 Кбит/сек | Русский, авторский (одноголосый закадровый) Максим Логинофф
Аудио #2: EAC3, 2 ch, 224 Кбит/сек | Английский, оригинал

Сборка:


Общее
Уникальный идентификатор : 172722809310339902289454512473658812657 (0x81F133FB4726C07EBE916B538D0EE8F1)
Полное имя : Выстоять.и.добиться.1988.WEB-DL.1080p.mkv
Формат : Matroska
Версия формата : Version 2
Размер файла : 10,8 Гбайт
Продолжительность : 1 ч. 43 м.
Режим общего битрейта : Переменный
Общий поток : 15,0 Мбит/сек
Дата кодирования : UTC 2018-06-13 09:15:25
Программа кодирования : mkvmerge v5.8.0 ('No Sleep / Pillow') built on Sep 2 2012 15:37:04
Библиотека кодирования : libebml v1.2.3 + libmatroska v1.3.0

Видео
Идентификатор : 1
Формат : AVC
Формат/Информация : Advanced Video Codec
Профиль формата : High@L4
Настройки формата : CABAC / 4 Ref Frames
Параметр CABAC формата : Да
Параметр RefFrames формата : 4 кадра
Идентификатор кодека : V_MPEG4/ISO/AVC
Продолжительность : 1 ч. 43 м.
Вид битрейта : Переменный
Битрейт : 14,3 Мбит/сек
Максимальный битрейт : 15,0 Мбит/сек
Ширина : 1920 пикселей
Высота : 1080 пикселей
Соотношение сторон : 16:9
Режим частоты кадров : Постоянный
Частота кадров : 23,976 (24000/1001) кадра/сек
Цветовое пространство : YUV
Субдискретизация насыщенности : 4:2:0
Битовая глубина : 8 бит
Тип развёртки : Прогрессивная
Бит/(Пиксели*Кадры) : 0.287
Размер потока : 10,3 Гбайт (95%)
Библиотека кодирования : x264 core 148 r2623 d5b2374
Настройки программы : cabac=1 / ref=4 / deblock=1:-1:-1 / analyse=0x3:0x133 / me=umh / subme=9 / psy=1 / psy_rd=1.00:0.15 / mixed_ref=1 / me_range=24 / chroma_me=1 / trellis=2 / 8x8dct=1 / cqm=0 / deadzone=21,11 / fast_pskip=1 / chroma_qp_offset=-3 / threads=34 / lookahead_threads=5 / sliced_threads=0 / nr=150 / decimate=1 / interlaced=0 / bluray_compat=0 / constrained_intra=0 / bframes=8 / b_pyramid=2 / b_adapt=2 / b_bias=0 / direct=3 / weightb=1 / open_gop=0 / weightp=2 / keyint=120 / keyint_min=61 / scenecut=0 / intra_refresh=0 / rc_lookahead=120 / rc=crf / mbtree=1 / crf=18.0 / qcomp=0.60 / qpmin=0 / qpmax=69 / qpstep=4 / vbv_maxrate=15000 / vbv_bufsize=31250 / crf_max=0.0 / nal_hrd=vbr / filler=0 / ip_ratio=1.40 / aq=3:1.00
Язык : English
Default : Да
Forced : Нет
Цветовой диапазон : Limited
Основные цвета : BT.709
Характеристики трансфера : BT.709
Коэффициенты матрицы : BT.709

Аудио #1
Идентификатор : 2
Формат : AC-3
Формат/Информация : Audio Coding 3
Идентификатор кодека : A_AC3
Продолжительность : 1 ч. 43 м.
Вид битрейта : Постоянный
Битрейт : 192 Кбит/сек
Каналы : 2 канала
Расположение каналов : Front: L R
Частота : 48,0 КГц
Частота кадров : 31,250 кадров/сек (1536 SPF)
Битовая глубина : 16 бит
Метод сжатия : С потерями
Размер потока : 142 Мбайт (1%)
Заголовок : AVO | М. Логинофф
Язык : Russian
По умолчанию : Да
Принудительно : Нет

Аудио #2
Идентификатор : 3
Формат : E-AC-3
Формат/Информация : Enhanced Audio Coding 3
Идентификатор кодека : A_EAC3
Продолжительность : 1 ч. 43 м.
Вид битрейта : Постоянный
Битрейт : 224 Кбит/сек
Каналы : 2 канала
Расположение каналов : Front: L R
Частота : 48,0 КГц
Частота кадров : 187,500 кадров/сек (256 SPF)
Метод сжатия : С потерями
Размер потока : 165 Мбайт (1%)
Заголовок : Original
Язык : English
По умолчанию : Нет
Принудительно : Нет

Текст #1
Идентификатор : 4
Формат : UTF-8
Идентификатор кодека : S_TEXT/UTF8
Идентификатор кодека/Информация : UTF-8 Plain Text
Заголовок : 1
Язык : English
По умолчанию : Нет
Принудительно : Нет

Текст #2
Идентификатор : 5
Формат : UTF-8
Идентификатор кодека : S_TEXT/UTF8
Идентификатор кодека/Информация : UTF-8 Plain Text
Заголовок : 2
Язык : English
По умолчанию : Нет
Принудительно : Нет

Текст #3
Идентификатор : 6
Формат : UTF-8
Идентификатор кодека : S_TEXT/UTF8
Идентификатор кодека/Информация : UTF-8 Plain Text
Заголовок : SDH
Язык : English
По умолчанию : Нет
Принудительно : Нет

Меню
00:00:00.000 : en:Studio Logos
00:00:17.000 : en:Opening Credits
00:02:52.000 : en:Jaime shows up for first day of school, administration office
00:03:56.000 : en:Jaime tries to get control of class, classroom
00:06:59.000 : en:Jaime tells Joe he is a high school teacher, driveway
00:08:19.000 : en:Apple lesson, classroom
00:10:37.000 : en:Jaime meets Chuco & Angel, classroom
00:12:52.000 : en:Jaime stops Angel from fighting, halls
00:14:16.000 : en:Negative lesson, classroom
00:18:01.000 : en:Jaime attends staff meeting about losing accreditation, conference room
00:19:50.000 : en:Jaime hands out weekly quiz, classroom
00:21:53.000 : en:Angel asks to have books to hide at home, halls
00:22:55.000 : en:Pancho & classmates complain about tests, bench
00:23:59.000 : en:Lupe refuses to take test, classroom
00:26:05.000 : en:Angel goes for ride
00:29:01.000 : en:Angel is late for class, classroom
00:30:30.000 : en:Jaime talks to Ana's father about school, restaurant
00:33:21.000 : en:Molina & Raquel sit in during Jaime's class, classroom
00:36:00.000 : en:Jaime takes class on field trip, computer lab
00:36:54.000 : en:Jaime talks about teaching calculus, conference room
00:39:04.000 : en:Jaime teaches calculus during summer, locker room
00:40:20.000 : en:Jaime chases thugs, school halls
00:41:54.000 : en:Jaime passes out contracts, classroom
00:43:08.000 : en:Claudia gets mom to sign contract, Claudia's house
00:44:10.000 : en:Jaime convinces Pancho to sign contract, multiple locations
00:45:48.000 : en:Jaime wakes Tito up, classroom
00:46:53.000 : en:Claudia is upset with Jaime, multiple locations
00:48:52.000 : en:Angel tries to get his grandma help, hospital
00:50:16.000 : en:Angel is upset that Jaime won't excuse his lateness, classroom
00:52:25.000 : en:Angel shows up to Jaime's with his grandma, Escalante house
00:54:19.000 : en:Jaime has heart attack, multiple locations
00:56:32.000 : en:Molina introduces substitute, classroom
00:58:29.000 : en:Family visits Jaime, hospital
00:59:32.000 : en:Jaime surprises students, classroom
01:01:16.000 : en:Students take calculus test & celebrate, multiple locations
01:03:12.000 : en:Pancho gets test results, Pancho's yard
01:04:13.000 : en:Students present award to Jaime, library
01:05:54.000 : en:Students learn that they are being accused of cheating, multiple locations
01:07:33.000 : en:Officials step in to investigate, multiple locations
01:09:16.000 : en:Angel & Chuco get pulled over, streets
01:12:06.000 : en:Angel: “His body is decomposing in my locker”, classroom
01:15:56.000 : en:Jaime's car is missing, parking lot
01:18:55.000 : en:Jaime regrets teaching calculus & finds car, Escalante house
01:21:26.000 : en:Jaime questions Ramirez & Pearson, conference room
01:23:29.000 : en:Jaime yells at Ramirez & Pearson, conference room
01:26:29.000 : en:Students prepare to take test again, classroom
01:28:00.000 : en:Jaime helps students study, kitchen
01:29:12.000 : en:Pancho apologizes to Lupe, porch
01:30:45.000 : en:Students take test again, library
01:33:25.000 : en:Students finish test, library
01:36:24.000 : en:Molina gets test results, multiple locations
01:39:59.000 : en:End Credits

• Исходник видео WEB-DL Amazon.
Аватара пользователя
mzma
Главный Модератор-Корсар
 
 

Награды: 64
За помощь проекту (2) Лучший по количеству кубков (6) За отличные раздачи и качество (36) За подробное оформление раздач (10) Верный Сид (8)
Раздачи группы KORSAR разрешено перезаливать спустя сутки после публикации
  • Торрент
Для скачивания торрента необходимо зарегистрироваться или войти на трекер.

Вернуться в Зарубежное кино (1981-1990 / HD Video)



Uptime по данным Ping-Admin.Ru - сервиса мониторинга доступности сайтов
Рейтинг@Mail.ru