logo
Международный русскоязычный
торрент-трекер
Menu
Поделиться с друзьями: 
Голосуй за Корсар и получи 500 дублонов
Рейтинг торрент трекеров - UpTracker.ru

Виселица / Hangman (2017, триллер, криминал, детектив, BDRip 720p) | iTunes

Сообщение Gogen » 19 дек 2017, 13:01

Название: Виселица
Оригинальное название: Hangman
Год выхода: 2017
Жанр: триллер, криминал, детектив
Режиссер: Джонни Мартин
В ролях: Карл Урбан, Аль Пачино, Бриттани Сноу, Сара Шахи, Джо Андерсон, Жермен Риверс, Майкл Пападжон, Чили Рамос, Одесса Рэй, Стив Култер

О фильме: На месте преступления коп и журналистка, пишущая о работе полиции, видят на столе вырезанные ножом цифры, которые соответствуют двум номерам полицейских жетонов: самого копа и другого полицейского, который уже вышел на пенсию. Логично, что его приглашают к расследованию и троица идёт по следам маньяка-убийцы, совершающего свои преступления каждые 24 часа. Все четверо связаны между собой разными жизненными обстоятельствами, но только один из них не ищет в преступлениях логики и здравого смысла, потому что понять это невозможно.



Выпущено: США / Patriot Pictures, Cheyenne Enterprises
Продолжительность: 01:38:33
Озвучивание #1: Профессиональное (многоголосое) | iTunes
Озвучивание #2: Профессиональное (многоголосое) | HDRezka Studio
Озвучивание #3: Любительское (многоголосое) | "Paradox" & Omskbird

Качество: BDRip 720p
Формат: MKV
Видео: MPEG-4 AVC, 6032 Kb/s, 1280x536
Аудио #1: Russian: 48 kHz, AC3 Dolby Digital, 2/0 (L, R) ch, ~192 Kbps | iTunes
Аудио #2: Russian: 48 kHz, AC3 Dolby Digital, 2/0 (L, R) ch, ~384 Kbps | HDRezka Studio
Аудио #3: Russian: 48 kHz, AC3 Dolby Digital, 2/0 (L, R) ch, ~192 Kbps | "Paradox" & Omskbird
Аудио #4: English: 48 kHz, AC3 Dolby Digital, 3/2 (L, C, R, l, r) + LFE ch, ~640 Kbps | Original
Субтитры: English

Релиз группы:

Complete name: D:Hangman.2017.BDRip.720p.ELEKTRI4KA.UNIONGANG.mkv
Format: Matroska
Format version: Version 4 / Version 2
File size: 5.12 GiB
Duration: 1 h 38 min
Overall bit rate: 7 443 kb/s
Movie name: .ELEKTRI4KA.UNIONGANG.
Encoded date: UTC 2020-07-30 20:44:10
Writing application: mkvmerge v8.3.0 ('Over the Horizon') 64bit
Writing library: libebml v1.3.1 + libmatroska v1.4.2
Cover: Yes
Attachments: cover.jpg / cover land.jpg

Video
ID: 1
Format: AVC
Format/Info: Advanced Video Codec
Format profile: High@L4.1
Format settings, CABAC: Yes
Format settings, Reference frames: 12 frames
Codec ID: V_MPEG4/ISO/AVC
Duration: 1 h 38 min
Bit rate: 6 032 kb/s
Width: 1 280 pixels
Height: 536 pixels
Display aspect ratio: 2.40:1
Frame rate mode: Constant
Frame rate: 23.976 (24000/1001) FPS
Color space: YUV
Chroma subsampling: 4:2:0
Bit depth: 8 bits
Scan type: Progressive
Bits/(Pixel*Frame): 0.367
Stream size: 4.15 GiB (81%)
Writing library: x264 core 152 r2851+58 429492e t_mod_Custom [8-bit@all X86_64]
Encoding settings: cabac=1 / ref=12 / deblock=1:-3:-3 / analyse=0x3:0x133 / me=umh / subme=11 / psy=1 / fade_compensate=0.00 / psy_rd=1.05:0.00 / mixed_ref=1 / me_range=64 / chroma_me=1 / trellis=2 / 8x8dct=1 / cqm=0 / deadzone=21, 11 / fast_pskip=0 / chroma_qp_offset=-2 / threads=6 / lookahead_threads=1 / sliced_threads=0 / nr=0 / decimate=0 / interlaced=0 / bluray_compat=0 / constrained_intra=0 / fgo=0 / bframes=8 / b_pyramid=2 / b_adapt=2 / b_bias=0 / direct=3 / weightb=1 / open_gop=0 / weightp=2 / keyint=250 / keyint_min=23 / scenecut=40 / intra_refresh=0 / rc_lookahead=60 / rc=crf / mbtree=0 / crf=17.0000 / qcomp=0.65 / qpmin=0:0:0 / qpmax=69:69:69 / qpstep=4 / vbv_maxrate=62500 / vbv_bufsize=78125 / crf_max=0.0 / nal_hrd=none / filler=0 / ip_ratio=1.30 / pb_ratio=1.20 / aq=3:0.65 / aq-sensitivity=10.00 / aq-factor=1.00:1.00:1.00 / aq2=0 / aq3=0 / zones=0, 1297, b=2/4700, 7118, b=1.5/9543, 14950, b=1.5/23044, 26643, b=1.5/28625, 28722, b=2/34163, 39261, b=1.5/40280, 41200, b=1.5/42925, 52121, b=2/62549, 66383, b=2/74600, 75388, b=1.5/86889, 90240, b=1.5
Language: English
Default: Yes
Forced: No
Color range: Limited
Matrix coefficients: BT.709

Audio #1
ID: 2
Format: AC-3
Format/Info: Audio Coding 3
Mode extension: CM (complete main)
Format settings, Endianness: Big
Codec ID: A_AC3
Duration: 1 h 38 min
Bit rate mode: Constant
Bit rate: 192 kb/s
Channel(s): 2 channels
Channel positions: Front: L R
Sampling rate: 48.0 kHz
Frame rate: 31.250 FPS (1536 spf)
Bit depth: 16 bits
Compression mode: Lossy
Stream size: 135 MiB (3%)
Title: MVO [iTunes]
Language: Russian
Default: Yes
Forced: Yes

Audio #2
ID: 3
Format: AC-3
Format/Info: Audio Coding 3
Mode extension: CM (complete main)
Format settings, Endianness: Big
Codec ID: A_AC3
Duration: 1 h 38 min
Bit rate mode: Constant
Bit rate: 384 kb/s
Channel(s): 2 channels
Channel positions: Front: L R
Sampling rate: 48.0 kHz
Frame rate: 31.250 FPS (1536 spf)
Bit depth: 16 bits
Compression mode: Lossy
Stream size: 271 MiB (5%)
Title: MVO [HDRezka Studio]
Language: Russian
Default: No
Forced: No

Audio #3
ID: 4
Format: AC-3
Format/Info: Audio Coding 3
Mode extension: CM (complete main)
Format settings, Endianness: Big
Codec ID: A_AC3
Duration: 1 h 38 min
Bit rate mode: Constant
Bit rate: 192 kb/s
Channel(s): 2 channels
Channel positions: Front: L R
Sampling rate: 48.0 kHz
Frame rate: 31.250 FPS (1536 spf)
Bit depth: 16 bits
Compression mode: Lossy
Stream size: 135 MiB (3%)
Title: MVO [Paradox & Omskbird]
Language: Russian
Default: No
Forced: No

Audio #4
ID: 5
Format: AC-3
Format/Info: Audio Coding 3
Mode extension: CM (complete main)
Format settings, Endianness: Big
Codec ID: A_AC3
Duration: 1 h 38 min
Bit rate mode: Constant
Bit rate: 640 kb/s
Channel(s): 6 channels
Channel positions: Front: L C R, Side: L R, LFE
Sampling rate: 48.0 kHz
Frame rate: 31.250 FPS (1536 spf)
Bit depth: 16 bits
Compression mode: Lossy
Stream size: 451 MiB (9%)
Title: Original
Language: English
Default: No
Forced: No

Text
ID: 6
Format: UTF-8
Codec ID: S_TEXT/UTF8
Codec ID/Info: UTF-8 Plain Text
Duration: 1 h 37 min
Bit rate: 62 b/s
Count of elements: 1393
Stream size: 44.7 KiB (0%)
Language: English
Default: No
Forced: No

Menu
00:00:00.000: en:CHAPTER01
00:06:34.311: en:CHAPTER02
00:14:04.302: en:CHAPTER03
00:18:31.277: en:CHAPTER04
00:23:44.882: en:CHAPTER05
00:30:21.862: en:CHAPTER06
00:36:13.922: en:CHAPTER07
00:42:59.744: en:CHAPTER08
00:51:42.224: en:CHAPTER09
00:57:23.815: en:CHAPTER10
01:00:11.441: en:CHAPTER11
01:09:00.178: en:CHAPTER12
01:13:32.658: en:CHAPTER13
01:20:24.820: en:CHAPTER14
01:29:09.511: en:CHAPTER15
01:34:28.663: en:CHAPTER16




Последний раз редактировалось al1ksandr 01 авг 2020, 01:03, всего редактировалось 1 раз.
Причина: Поглощённый торрент
КУБКИ

СТАЖ

МЕДАЛИ
Награды:67

Лучший по количеству кубков (14) За отличные раздачи и качество (36) За подробное оформление раздач (2) За отличные комментарии (7) Почётный форумчанин (2) Верный Сид (2)

Аватара пользователя
Russia
Gogen
Заслуженный Релизёр-Корсар
  • Торрент
Для скачивания торрента необходимо зарегистрироваться или войти на трекер.

Сообщение Gogen » 19 дек 2017, 13:14

Раздача сетевая, на отсутствие сидов не обращайте внимания!
КУБКИ

СТАЖ

МЕДАЛИ
Награды:67

Лучший по количеству кубков (14) За отличные раздачи и качество (36) За подробное оформление раздач (2) За отличные комментарии (7) Почётный форумчанин (2) Верный Сид (2)

Аватара пользователя
Russia
Gogen
Заслуженный Релизёр-Корсар

Сообщение al1ksandr » 01 авг 2020, 01:05

Замена WEB-DL 720p на BDRip 720p.
КУБКИ

СТАЖ

МЕДАЛИ
Награды:56

За активную помощь проекту (4) Лучший по количеству кубков (16) За отличные раздачи и качество (13) За подробное оформление раздач (1) За отличные комментарии (15) Почётный форумчанин (3) Верный Сид (1) За участие в конкурсах/играх (2)

Аватара пользователя
СССР
al1ksandr
Главный Модератор-Корсар


Вернуться в Зарубежное кино (2011-2020 / HD Video)



Рейтинг@Mail.ru