logo
Международный русскоязычный
торрент-трекер
Menu
Doublon
Поделиться с друзьями: 
Голосуй за Корсар и получи 500 дублонов
Рейтинг торрент трекеров - UpTracker.ru

Виннету - Коллекция фильмов / Winnetou - Collection of films (1962-1968, приключения, вестерн, BDRip 1080p)

Сообщение Gogen » 29 мар 2017, 21:42

Название / Год выхода:
01 - Сокровище Серебряного озера / 1962
02 - Золото Апачей / 1963
03 - Виннету – вождь апачей / 1964
04 - Виннету – сын Инчу-Чуна / 1964
05 - Среди коршунов / 1964
06 - Нефтяной король / 1965
07 - Виннету 3 / 1965
08 - Верная Рука – друг индейцев / 1965
09 - Виннету и полукровка Апаначи / 1966
10 - Громовержец и Виннету / 1966
11 - Виннету в долине смерти / 1968

Оригинальное название / Продолжительность:
01 - Der Schatz im Silbersee / 01:51:04
02 - Winnetou - 1. Teil / 01:41:31
03 - Old Shatterhand / 01:57:59
04 - Winnetou - 2. Teil / 01:34:34
05 - Unter Geiern / 01:38:44
06 - Der Ölprinz / 01:30:41
07 - Winnetou - 3. Teil / 01:32:50
08 - Old Surehand / 01:33:06
09 - Winnetou und das Halbblut Apanatschi / 01:30:22
10 - Winnetou und sein Freund Old Firehand / 01:34:25
11 - Winnetou und Shatterhand im Tal der Toten / 01:28:58

Страна: Германия (ФРГ), Югославия, Франция
Студия: Rialto Film Preben-Philipsen, Jadran Film, Rialto Film
Жанр: приключения, вестерн
Режиссер: Харальд Райнль, Уго Фрегонезе, Альфред Форер, Харольд Филипп
В ролях: Пьер Брис Лекс Баркер, Херберт Лом, Гётц Георге, Карин Дор, Ральф Вольтер, Эдди Арент, Марианне Хоппе, Мирко Боман, Сима Яничиевич, ...

Перевод:
- Профессиональный (дублированный) СССР с 01-04 и 08
- Профессиональный (многоголосный, закадровый)
- Профессиональный (двуголосый, закадровый)

О фильме: Виннету, сын вождя мескалеро-апачей, верен своему слову и предан своим друзьям, отважен, но не безрассудно, при этом весьма рассудителен и уважаем за это всеми локальными племенами, даже воинственными команчами.
Он превосходный наездник, мастерски владеет как огнестрельным, так и метательным оружием, ножами, копьями и пр. Он знает обычаи американских колонистов, так как получил хорошее образование в их среде. В то же время он строго блюдёт обычаи своего народа. По-мужски скромный и о себе предпочитает говорить всегда в третьем лице. Кроме того он очень толерантен и миролюбив, стараясь всячески воспрепятствовать возможным конфликтам и уладить их сугубо мирными путями, истинный борец за мир и дружбу между коренным населением Америки и европейскими переселенцами.
По убеждениям он фаталист и верит, что всё на Свете уже предопределено Маниту.



Кодек: x264
Качество: BDRip 1080p
Видео: ~1920x816, 10000 kbps, ~23,976 fps
Аудио #1: AC-3, 2 ch, 192 kbps (Rus) - Dub СССР
Аудио #2: AC-3, 2 ch, 192 kbps (Rus) - MVO 5 канал
Аудио #3: AC-3, 2 ch, 192 kbps (Rus) - DVO Петр Иващенко (Гланц) и Инна Королева
Аудио #4: AC-3, 2 ch, 192 kbps (Ger)
Субтитры: Немецкие


General
Unique ID : 216277806917100277510032121461813783800 (0xA2B59728B3907418B1254D23696BACF8)
Complete name : Виннету (Winnetou) 1962-1968 BDRip 1080p.mkv
Format : Matroska
Format version : Version 2
File size : 8.72 GiB
Duration : 1 h 57 min
Overall bit rate : 10.6 Mb/s
Encoded date : UTC 2017-03-12 17:00:58
Writing application : mkvmerge v4.0.0 ('The Stars were mine') сборка от Jun 6 2010 16:18:42
Writing library : libebml v1.0.0 + libmatroska v1.0.0

Video
ID : 1
Format : AVC
Format/Info : Advanced Video Codec
Format profile : High@L4.1
Format settings, CABAC : Yes
Format settings, RefFrames : 5 frames
Codec ID : V_MPEG4/ISO/AVC
Duration : 1 h 57 min
Bit rate : 10 000 kb/s
Width : 1 920 pixels
Height : 816 pixels
Display aspect ratio : 2.35:1
Frame rate mode : Constant
Frame rate : 23.976 (24000/1001) FPS
Color space : YUV
Chroma subsampling : 4:2:0
Bit depth : 8 bits
Scan type : Progressive
Bits/(Pixel*Frame) : 0.266
Stream size : 8.07 GiB (93%)
Writing library : x264 core 146 r2538 121396c
Encoding settings : cabac=1 / ref=5 / deblock=1:-3:-3 / analyse=0x3:0x133 / me=umh / subme=11 / psy=1 / psy_rd=1.00:0.00 / mixed_ref=1 / me_range=32 / chroma_me=1 / trellis=2 / 8x8dct=1 / cqm=0 / deadzone=21,11 / fast_pskip=0 / chroma_qp_offset=-2 / threads=12 / lookahead_threads=2 / sliced_threads=0 / nr=0 / decimate=0 / interlaced=0 / bluray_compat=0 / constrained_intra=0 / bframes=12 / b_pyramid=2 / b_adapt=2 / b_bias=0 / direct=3 / weightb=1 / open_gop=0 / weightp=2 / keyint=240 / keyint_min=23 / scenecut=40 / intra_refresh=0 / rc=2pass / mbtree=0 / bitrate=10000 / ratetol=1.0 / qcomp=0.60 / qpmin=0 / qpmax=69 / qpstep=4 / cplxblur=20.0 / qblur=0.5 / ip_ratio=1.40 / pb_ratio=1.30 / aq=1:0.80
Language : German
Default : No
Forced : No

Audio #1
ID : 2
Format : AC-3
Format/Info : Audio Coding 3
Format settings, Endianness : Big
Codec ID : A_AC3
Duration : 1 h 57 min
Bit rate mode : Constant
Bit rate : 192 kb/s
Channel(s) : 2 channels
Channel positions : Front: L R
Sampling rate : 48.0 kHz
Frame rate : 31.250 FPS (1536 SPF)
Bit depth : 16 bits
Compression mode : Lossy
Stream size : 162 MiB (2%)
Title : Dub СССР Союзмультфильм (вставки MVO)
Language : Russian
Service kind : Complete Main
Default : No
Forced : No

Audio #2
ID : 3
Format : AC-3
Format/Info : Audio Coding 3
Mode : Dolby Digital
Format settings, Endianness : Big
Codec ID : A_AC3
Duration : 1 h 57 min
Bit rate mode : Constant
Bit rate : 192 kb/s
Channel(s) : 2 channels
Channel positions : Front: L R
Sampling rate : 48.0 kHz
Frame rate : 31.250 FPS (1536 SPF)
Bit depth : 16 bits
Compression mode : Lossy
Stream size : 162 MiB (2%)
Title : MVO
Language : Russian
Service kind : Complete Main
Default : No
Forced : No

Audio #3
ID : 4
Format : AC-3
Format/Info : Audio Coding 3
Format settings, Endianness : Big
Codec ID : A_AC3
Duration : 1 h 57 min
Bit rate mode : Constant
Bit rate : 192 kb/s
Channel(s) : 2 channels
Channel positions : Front: L R
Sampling rate : 48.0 kHz
Frame rate : 31.250 FPS (1536 SPF)
Bit depth : 16 bits
Compression mode : Lossy
Stream size : 162 MiB (2%)
Language : German
Service kind : Complete Main
Default : No
Forced : No
КУБКИ

СТАЖ

МЕДАЛИ
Награды:54

Лучший по количеству кубков (14) За отличные раздачи и качество (26) За подробное оформление раздач (1) За отличные комментарии (4) Почётный форумчанин (3) Верный Сид (2)

Аватара пользователя
Russia
Gogen
Заслуженный Релизёр-Корсар
  • Торрент
Для скачивания торрента необходимо зарегистрироваться или войти на трекер.

Сообщение Sultan-33 » 15 дек 2017, 17:53

Афигеть!!! :-drinks: Вот я на "золотую жилу" попал...Весь Виннету в "одном флаконе",и обалденном качестве!!! :10 balov:
Надо срочно освобождать место на харде...
Парни! Большущее спасибо за Ваш труд! :hi:
Korsar рулит! :senks2:
КУБКИ

СТАЖ

МЕДАЛИ
Награды:9

За отличные комментарии (9)

Аватара пользователя
Sultan-33
Опытный Корсар

Сообщение pavelp6307 » 23 июн 2018, 11:53

Очень рад что нашел такую раздачу на данном сайте !
СТАЖ

МЕДАЛИ


Аватара пользователя
pavelp6307
Опытный Корсар

Сообщение kwazar312 » 23 июн 2018, 14:20

хорошая раздача,большое спасибо.Надо скачивать,раньше как-то пропустил.
Удачи !
КУБКИ

СТАЖ

МЕДАЛИ
Награды:105

За помощь проекту (11) Лучший по количеству кубков (27) За отличные раздачи и качество (2) За отличные комментарии (20) Почётный форумчанин (1) Верный Сид (38) За участие в конкурсах/играх (6)

Аватара пользователя
kwazar312
Заслуженный Корсар-Вип

Сообщение Aleksmak » 08 ноя 2018, 19:46

Даже и не мечтал о такой колекции со старым, добрым Виннету!!!! Огромное спасибо за раздачу!
КУБКИ

СТАЖ

МЕДАЛИ
Награды:2

Верный Сид (2)

Аватара пользователя
Aleksmak
Уважаемый Корсар

Сообщение poletov » 04 янв 2019, 20:53

Отличная серия и первый раз в таком качестве,согласен с предыдущими комментами
КУБКИ

СТАЖ

МЕДАЛИ
Награды:8

За отличные комментарии (7) Верный Сид (1)

Аватара пользователя
poletov
Уважаемый Корсар


Вернуться в Зарубежное кино (Сборники фильмов / HD Video)



Uptime по данным Ping-Admin.Ru - сервиса мониторинга доступности сайтов
Рейтинг@Mail.ru Голосуйте за наш сайт в каталоге Rubo.Ru