logo
Международный русскоязычный
торрент-трекер
Menu

Doublon
Поделиться с друзьями: 
Голосуй за Корсар и получи 100 дублонов
Рейтинг торрент трекеров - UpTracker.ru

Выкуп / Butterfly on a Wheel (2007, триллер, драма, криминал, BDRip 720p) | ITA Transfer

Сообщение envy » 10 янв 2018, 10:29

Русское название: Выкуп
Оригинальное название: Butterfly on a Wheel
Год выхода: 2007
Жанр: триллер, драма, криминал
Режиссер: Майк Баркер
Выпущено: США
Продолжительность: 01:36:46
Перевод: Дублированный
В ролях: Пирс Броснан, Мария Белло, Джерард Батлер, Эмма Карванди, Клодетт Минк, Дезире Зуровски, Николас Лиа, Питер Келеган, Саманта Феррис, Малкольм Стюарт

Описание: У Нила и Эбби Рэндалл идеальный брак и идеальная жизнь. Вместе с дочкой Софи они являются живым воплощением «американской мечты»… но мечты заканчиваются… Внезапно Софи похищают, и родителям не остается ничего другого, как согласиться на условия похитителя. В мгновения ока их жизнь оказывается в руках похитителя — Тома — социопата, которому, похоже, нечего терять. Они выполняют все более и более изощренные требования Тома, пока не становится ясно, что этому человеку нужны вовсе не их деньги — он жаждет полностью, кусочек за кусочком, разрушить жизнь Нила и Эбби, жизнь, которую они строили более 10 лет…

Качество: BDRip 720p (исходник Blu-Ray Disc 1080p ITA Transfer)
Контейнер: MKV (расширение файла)
Видео: 1280x534, 5310 Кбит/сек, 24,000 кадр/сек, AVC, x264, High@L4.1, 2.40:1, 0.324 Бит/[Пиксели*Кадры]
Аудио 1: AC-3, 640 Кбит/сек, 6 канала(ов), 48,0 КГц - Дублированный / Русский
Аудио 2: AC-3, 640 Кбит/сек, 6 канала(ов), 48,0 КГц - Оригинал / Английский
Субтитры: Русские | Полные, Английские | Полные
Форсированные субтитры: Нет
Чаптеры (Главы): Есть



Автор Рипа: Группа:




Format : Matroska
Format version : Version 2
File size : 4.37 GiB
Duration : 1 h 34 min
Overall bit rate : 6 584 kb/s
Movie name : Butterfly on a Wheel.(2007).BDRip.720p.[envy]
Encoded date : UTC 2018-01-10 07:06:20
Writing application : mkvmerge v5.8.0 ('No Sleep / Pillow') built on Sep 2 2012 15:37:04
Writing library : libebml v1.2.3 + libmatroska v1.3.0

Video
ID : 1
Format : AVC
Format/Info : Advanced Video Codec
Format profile : High@L4.1
Format settings : CABAC / 11 Ref Frames
Format settings, CABAC : Yes
Format settings, ReFrames : 11 frames
Codec ID : V_MPEG4/ISO/AVC
Duration : 1 h 34 min
Bit rate : 5 310 kb/s
Width : 1 280 pixels
Height : 534 pixels
Display aspect ratio : 2.40:1
Frame rate mode : Constant
Frame rate : 24.000 FPS
Color space : YUV
Chroma subsampling : 4:2:0
Bit depth : 8 bits
Scan type : Progressive
Bits/(Pixel*Frame) : 0.324
Stream size : 3.43 GiB (79%)
Title : Butterfly on a Wheel.(2007).BDRip.720p.[envy]
Writing library : x264 core 152 r2851 ba24899
Encoding settings : cabac=1 / ref=11 / deblock=1:-3:-3 / analyse=0x3:0x113 / me=umh / subme=11 / psy=1 / psy_rd=1.00:0.09 / mixed_ref=1 / me_range=32 / chroma_me=1 / trellis=2 / 8x8dct=1 / cqm=0 / deadzone=21,11 / fast_pskip=0 / chroma_qp_offset=-3 / threads=12 / lookahead_threads=1 / sliced_threads=0 / nr=0 / decimate=1 / interlaced=0 / bluray_compat=0 / constrained_intra=0 / bframes=5 / b_pyramid=2 / b_adapt=2 / b_bias=0 / direct=3 / weightb=1 / open_gop=0 / weightp=2 / keyint=240 / keyint_min=24 / scenecut=40 / intra_refresh=0 / rc=2pass / mbtree=0 / bitrate=5310 / ratetol=1.0 / qcomp=0.60 / qpmin=0 / qpmax=69 / qpstep=4 / cplxblur=20.0 / qblur=0.5 / ip_ratio=1.40 / pb_ratio=1.30 / aq=1:0.80
Language : English
Default : Yes
Forced : No

Audio #1
ID : 2
Format : AC-3
Format/Info : Audio Coding 3
Codec ID : A_AC3
Duration : 1 h 34 min
Bit rate mode : Constant
Bit rate : 640 kb/s
Channel(s) : 6 channels
Channel positions : Front: L C R, Side: L R, LFE
Sampling rate : 48.0 kHz
Frame rate : 31.250 FPS (1536 SPF)
Bit depth : 16 bits
Compression mode : Lossy
Stream size : 435 MiB (10%)
Title : Dub
Language : Russian
Service kind : Complete Main
Default : Yes
Forced : No

Audio #2
ID : 3
Format : AC-3
Format/Info : Audio Coding 3
Codec ID : A_AC3
Duration : 1 h 34 min
Bit rate mode : Constant
Bit rate : 640 kb/s
Channel(s) : 6 channels
Channel positions : Front: L C R, Side: L R, LFE
Sampling rate : 48.0 kHz
Frame rate : 31.250 FPS (1536 SPF)
Bit depth : 16 bits
Compression mode : Lossy
Stream size : 435 MiB (10%)
Title : Eng
Language : English
Service kind : Complete Main
Default : No
Forced : No

Text #1
ID : 4
Format : UTF-8
Codec ID : S_TEXT/UTF8
Codec ID/Info : UTF-8 Plain Text
Title : Rus full
Language : Russian
Default : No
Forced : No

Text #2
ID : 5
Format : UTF-8
Codec ID : S_TEXT/UTF8
Codec ID/Info : UTF-8 Plain Text
Title : Eng full
Language : English
Default : No
Forced : No

Menu
00:00:00.000 : :Chapter 01
00:10:19.791 : :Chapter 02
00:16:26.333 : :Chapter 03
00:24:00.250 : :Chapter 04
00:29:46.583 : :Chapter 05
00:36:57.958 : :Chapter 06
00:44:16.041 : :Chapter 07
00:51:54.958 : :Chapter 08
01:04:00.375 : :Chapter 09
01:14:57.958 : :Chapter 10
01:21:52.000 : :Chapter 11
01:29:05.625 : :Chapter 12


Аватара пользователя
envy
Опытный Релизёр-Корсар
 
 

Награды: 20
Лучший по количеству кубков (3) За отличные раздачи и качество (11) За подробное оформление раздач (2) Верный Сид (2)
  • Торрент
Для скачивания торрента необходимо зарегистрироваться или войти на трекер.

Вернуться в Зарубежное кино (2001-2010 / HD Video)



Uptime по данным Ping-Admin.Ru - сервиса мониторинга доступности сайтов
Рейтинг@Mail.ru