logo
Международный русскоязычный
торрент-трекер
Menu
Поделиться с друзьями: 
Голосуй за Корсар и получай 1000 дублонов каждый день
Рейтинг торрент трекеров - UpTracker.ru

Вифлеем. Город Иисуса (2015, Документальный, биография, HDTVRip-AVC) - KORSAR

Сообщение Sanechek » 07 янв 2017, 18:20

Название: Вифлеем. Город Иисуса
Год выхода: 2015
Жанр: Документальный, биография
Режиссер: Константин Мурашев

О фильме: Вифлеем. Это священный для христиан город. Каждый из нас слышал о его существовании. Все, что написано в Евангелиях о рождении Христа, связано именно с этими местами. Новый завет - это фактически путеводитель по святой земле и, разумеется, по Вифлеему. Рождество - главный праздник города. Мы покажем, как он выглядит и что здесь происходит в рождественские дни. Отмечать Рождество здесь начинают задолго до заката. В Палестине к христианским праздникам особое отношение: даже арабы-мусульмане приезжают сюда, чтобы показать христианам свое уважение. Количество паломников обычно превышает все допустимые санитарные нормы. Но ни на площади, ни в храме не бывает давки. Только хаотичное, шумное броуновское движение людей. В эти дни город преображается до неузнаваемости - повсюду развешаны разноцветные флажки и рождественские звезды. А на площади бойко идет торговля рождественскими сувенирами и пряностями. Рождество в Вифлееме отмечают 2 раза - 25 декабря и 7 января. Первыми празднуют христиане западной, латинской традиции. Вторая волна праздников проходится на привычные нам дни - 6 и 7 января. Именно тогда отмечают Рождество православные христиане и все, кто живет по юлианскому календарю...

Выпущено: Россия, 1 канал
Продолжительность: 00:49:29
Перевод: не требуется

Файл
Кодек: х264
Качество: HDTVRip-AVC
Видео: MPEG-4 AVC, 1024x576, 25 fps, 2050 Кбит/с
Звук: AC3, 2 ch, 192 Кбит/с

Общее
Уникальный идентификатор : 231032802955229740176512725338496319905 (0xADCF4CA1333DE100B71A70C82CAA41A1)
Полное имя : D:\Вифлеем. Город Иисуса (2015).mkv
Формат : Matroska
Версия формата : Version 2
Размер файла : 794 Мбайт
Продолжительность : 49 м. 29 с.
Общий поток : 2244 Кбит/сек
Дата кодирования : UTC 2016-12-28 06:57:18
Программа кодирования : mkvmerge v7.8.0 ('River Man') 32bit built on Apr 3 2015 12:11:22
Библиотека кодирования : libebml v1.3.1 + libmatroska v1.4.2

Видео
Идентификатор : 1
Формат : AVC
Формат/Информация : Advanced Video Codec
Профиль формата : High@L4.1
Параметр CABAC формата : Да
Параметр ReFrames формата : 12 кадров
Идентификатор кодека : V_MPEG4/ISO/AVC
Продолжительность : 49 м. 29 с.
Битрейт : 2050 Кбит/сек
Ширина : 1024 пикселя
Высота : 576 пикселей
Соотношение сторон : 16:9
Режим частоты кадров : Постоянный
Частота кадров : 25,000 кадров/сек
Цветовое пространство : YUV
Субдискретизация насыщенности : 4:2:0
Битовая глубина : 8 бит
Тип развёртки : Прогрессивная
Бит/(Пиксели*Кадры) : 0.139
Размер потока : 711 Мбайт (89%)
Библиотека кодирования : x264 core 146 r2538 121396c
Настройки программы : cabac=1 / ref=12 / deblock=1:-2:-2 / analyse=0x3:0x113 / me=umh / subme=10 / psy=1 / psy_rd=1.05:0.10 / mixed_ref=1 / me_range=32 / chroma_me=1 / trellis=2 / 8x8dct=1 / cqm=0 / deadzone=21,11 / fast_pskip=0 / chroma_qp_offset=-3 / threads=3 / lookahead_threads=1 / sliced_threads=0 / nr=0 / decimate=0 / interlaced=0 / bluray_compat=0 / constrained_intra=0 / bframes=16 / b_pyramid=2 / b_adapt=2 / b_bias=0 / direct=3 / weightb=1 / open_gop=0 / weightp=2 / keyint=250 / keyint_min=25 / scenecut=40 / intra_refresh=0 / rc=2pass / mbtree=0 / bitrate=2050 / ratetol=1.0 / qcomp=0.63 / qpmin=0 / qpmax=69 / qpstep=4 / cplxblur=20.0 / qblur=0.5 / ip_ratio=1.25 / pb_ratio=1.30 / aq=1:1.00
Язык : Russian
Default : Да
Forced : Нет
Цветовой диапазон : Limited
Основные цвета : BT.709
Характеристики трансфера : BT.709
Коэффициенты матрицы : BT.709

Аудио
Идентификатор : 2
Формат : AC-3
Формат/Информация : Audio Coding 3
Расширение режима : CM (complete main)
Параметр Endianness формата : Big
Идентификатор кодека : A_AC3
Продолжительность : 49 м. 29 с.
Вид битрейта : Постоянный
Битрейт : 192 Кбит/сек
Каналы : 2 канала
Расположение каналов : Front: L R
Частота : 48,0 КГц
Частота кадров : 31,250 кадров/сек (1536 spf)
Битовая глубина : 16 бит
Метод сжатия : С потерями
Размер потока : 68,0 Мбайт (9%)
Язык : Russian
Default : Да
Forced : Нет
КУБКИ

СТАЖ

МЕДАЛИ
Награды:71

Пожизненный VIP+ (1) За активную помощь проекту VIP (4) Лучший по количеству кубков (9) За отличные раздачи и качество (24) За подробное оформление раздач (2) За отличные комментарии (7) Почётный форумчанин (1) Верный Сид (22)

Аватара пользователя
СССР
Sanechek
Главный Модератор-Корсар
Раздачи группы KORSAR доступны раздавшим не менее 15 гиг и зарегистрированным от 14 дней, а перезаливать разрешено спустя 14 дней после публикации и с обязательным добавлением банера!!!
  • Торрент
Для скачивания торрента необходимо зарегистрироваться или войти на трекер.

Сообщение kwazar312 » 07 янв 2017, 19:10

Уважаемый Sanechek,большое спасибо за хорошую раздачу.Смотрел до этого в очень плохом качестве.
КУБКИ

СТАЖ

МЕДАЛИ
Награды:149

Пожизненный VIP+ (4) За активную помощь проекту VIP (14) Лучший по количеству кубков (46) За отличные раздачи и качество (3) За отличные комментарии (26) Почётный форумчанин (1) Верный Сид (49) За участие в конкурсах/играх (6)

Аватара пользователя
kwazar312
Заслуженный Корсар-VIP+


Вернуться в Христианство



Рейтинг@Mail.ru