logo
Международный русскоязычный
торрент-трекер
Menu
Doublon
Поделиться с друзьями: 
Голосуй за Корсар и получи 500 дублонов
Рейтинг торрент трекеров - UpTracker.ru

Вас ожидает гражданка Никанорова (1978, мелодрама, DVDRip-AVC) - KORSAR

Непрочитанное сообщение filbi1976 » 08 сен 2019, 11:13

Вас ожидает гражданка Никанорова

Жанр: мелодрама
Год выпуска: 1978
Продолжительность: 01:21:46
Режиссёр: Леонид Марягин
В ролях:Наталья Гундарева, Борислав Брондуков, Евгений Киндинов, Иван Рыжов, Михаил Васьков, Геннадий Фролов, Лев Борисов, Наталья Гущина, Вера Новикова, Валентина Березуцкая, Людмила Полякова.

Описание: Судьба не раз обманывала Катю Никанорову. В поисках своего идеала она прошла через потери и ошибки. Далеко не сразу смогла она разглядеть в сельском ветеринаре своего принца, но лишь он один сумел в буйной, увлекающейся Катерине увидеть женщину добрую и чуткую..

Качество: DVDRip-AVC
Формат: MKV
Видео: MPEG-4 AVC, 718x432@1021x432, 25 fps, 1405 Кбит/с
Аудио: AC3, 6 ch, 448 Кбит/с, AC3, 2 ch, 224 Кбит/с
Язык: Русский



  • x264 [info]: frame I:659 Avg QP:16.56 size: 56243
  • x264 [info]: frame P:30022 Avg QP:18.08 size: 18686
  • x264 [info]: frame B:91986 Avg QP:21.09 size: 3136
  • x264 [info]: consecutive B-frames: 2.8% 4.0% 11.6% 26.5% 21.9% 26.1% 4.4% 1.8% 0.5% 0.3% 0.1% 0.0% 0.0%
Общее
Уникальный идентификатор : 241118743188328915921005199310566461122 (0xB565C7E046DA14F39C1FD40B28080EC2)
Полное имя : D:\Вас ожидает гражданка Никанорова_1978-DVDRip-AVC_KORSAR.mkv
Формат : Matroska
Версия формата : Version 2
Размер файла : 1,21 Гбайт
Продолжительность : 1 ч. 21 м.
Общий поток : 2119 Кбит/сек
Название фильма : Вас ожидает гражданка Никанорова_1978-DVDRip-AVC_KORSAR
Дата кодирования : UTC 2019-09-08 08:05:38
Программа кодирования : mkvmerge v5.8.0 ('No Sleep / Pillow') built on Sep 2 2012 15:37:04
Библиотека кодирования : libebml v1.2.3 + libmatroska v1.3.0

Видео
Идентификатор : 1
Формат : AVC
Формат/Информация : Advanced Video Codec
Профиль формата : High@L4.1
Настройки формата : CABAC / 14 Ref Frames
Параметр CABAC формата : Да
Параметр RefFrames формата : 14 кадров
Идентификатор кодека : V_MPEG4/ISO/AVC
Продолжительность : 1 ч. 21 м.
Битрейт : 1405 Кбит/сек
Ширина : 718 пикселей
Высота : 432 пикселя
Соотношение сторон : 2,35:1
Соотношение сторон в оригинале : 2,35:1
Режим частоты кадров : Постоянный
Частота кадров : 25,000 кадров/сек
Цветовое пространство : YUV
Субдискретизация насыщенности : 4:2:0
Битовая глубина : 8 бит
Тип развёртки : Прогрессивная
Бит/(Пиксели*Кадры) : 0.181
Размер потока : 822 Мбайт (66%)
Библиотека кодирования : x264 core 152 r2851kMod ba24899
Настройки программы : cabac=1 / ref=14 / deblock=1:-2:-2 / analyse=0x3:0x133 / me=umh / subme=10 / psy=1 / fade_compensate=0.00 / psy_rd=1.05:0.10 / mixed_ref=1 / me_range=40 / chroma_me=1 / trellis=2 / 8x8dct=1 / cqm=0 / deadzone=21,11 / fast_pskip=1 / chroma_qp_offset=-3 / threads=13 / lookahead_threads=3 / sliced_threads=0 / nr=0 / decimate=1 / interlaced=0 / bluray_compat=0 / constrained_intra=0 / bframes=12 / b_pyramid=2 / b_adapt=2 / b_bias=0 / direct=1 / weightb=1 / open_gop=0 / weightp=2 / keyint=250 / keyint_min=25 / scenecut=40 / intra_refresh=0 / rc=crf / mbtree=0 / crf=17.5000 / qcomp=0.63 / qpmin=0 / qpmax=30 / qpstep=4 / ip_ratio=1.40 / pb_ratio=1.30 / aq=1:1.00
Язык : English
Default : Да
Forced : Нет
Цветовой диапазон : Limited
Основные цвета : BT.601 PAL
Характеристики трансфера : BT.470 System B/G
Коэффициенты матрицы : BT.470 System B/G

Аудио #1
Идентификатор : 2
Формат : AC-3
Формат/Информация : Audio Coding 3
Коммерческое название : Dolby Digital
Идентификатор кодека : A_AC3
Продолжительность : 1 ч. 21 м.
Вид битрейта : Постоянный
Битрейт : 448 Кбит/сек
Каналы : 6 каналов
ChannelLayout : L R C LFE Ls Rs
Частота : 48,0 КГц
Частота кадров : 31,250 кадров/сек (1536 SPF)
Битовая глубина : 16 бит
Метод сжатия : С потерями
Размер потока : 262 Мбайт (21%)
Язык : Russian
ServiceKind/String : Complete Main
Default : Да
Forced : Нет

Аудио #2
Идентификатор : 3
Формат : AC-3
Формат/Информация : Audio Coding 3
Коммерческое название : Dolby Digital
Идентификатор кодека : A_AC3
Продолжительность : 1 ч. 21 м.
Вид битрейта : Постоянный
Битрейт : 224 Кбит/сек
Каналы : 1 канал
ChannelLayout : C
Частота : 48,0 КГц
Частота кадров : 31,250 кадров/сек (1536 SPF)
Битовая глубина : 16 бит
Метод сжатия : С потерями
Размер потока : 131 Мбайт (11%)
Язык : Russian
ServiceKind/String : Complete Main
Default : Нет
Forced : Нет

Меню
00:00:00.000 : en:Chapter 1
00:05:51.960 : en:Chapter 2
00:15:28.920 : en:Chapter 3
00:25:31.160 : en:Chapter 4
00:31:00.280 : en:Chapter 5
00:37:23.080 : en:Chapter 6
00:47:50.240 : en:Chapter 7
00:56:23.480 : en:Chapter 8
01:03:10.480 : en:Chapter 9
01:11:32.200 : en:Chapter 10
01:20:26.920 : en:Chapter 11

Просьба отключить блокировщики рекламы на странице скриншотов по адресу: http://3.lostpic.net/, этим Вы поможете существованию проекта. Заранее спасибо!
Посмотреть товар в профиле пользователя

Нажмите на изображение, чтобы увидеть в полный размер  
1 шт.
Нажмите на изображение, чтобы увидеть в полный размер  
1 шт.
Нажмите на изображение, чтобы увидеть в полный размер  
1 шт.
Нажмите на изображение, чтобы увидеть в полный размер  
1 шт.
Нажмите на изображение, чтобы увидеть в полный размер  
1 шт.
Нажмите на изображение, чтобы увидеть в полный размер  
1 шт.
Нажмите на изображение, чтобы увидеть в полный размер  
1 шт.
Нажмите на изображение, чтобы увидеть в полный размер  
1 шт.
Нажмите на изображение, чтобы увидеть в полный размер  
1 шт.
Нажмите на изображение, чтобы увидеть в полный размер  
1 шт.
Нажмите на изображение, чтобы увидеть в полный размер  
1 шт.
Нажмите на изображение, чтобы увидеть в полный размер  
1 шт.
Нажмите на изображение, чтобы увидеть в полный размер  
1 шт.
Нажмите на изображение, чтобы увидеть в полный размер  
1 шт.
Нажмите на изображение, чтобы увидеть в полный размер  
1 шт.
КУБКИ

СТАЖ

МЕДАЛИ
Награды:124

За помощь проекту (3) За отличные раздачи и качество (76) За отличные комментарии (6) Почётный форумчанин (6) Верный Сид (30) За участие в конкурсах/играх (1)

Аватара пользователя
Тортуга
filbi1976
Администратор-Корсар
Раздачи группы KORSAR разрешено перезаливать спустя 5 дней после публикации, с обязательным добавлением банера
  • Торрент
Для скачивания торрента необходимо зарегистрироваться или войти на трекер.

Непрочитанное сообщение filbi1976 » 08 сен 2019, 11:13

Раздача обновлена! :hi:
Посмотреть товар в профиле пользователя

Нажмите на изображение, чтобы увидеть в полный размер  
1 шт.
Нажмите на изображение, чтобы увидеть в полный размер  
1 шт.
Нажмите на изображение, чтобы увидеть в полный размер  
1 шт.
Нажмите на изображение, чтобы увидеть в полный размер  
1 шт.
Нажмите на изображение, чтобы увидеть в полный размер  
1 шт.
Нажмите на изображение, чтобы увидеть в полный размер  
1 шт.
Нажмите на изображение, чтобы увидеть в полный размер  
1 шт.
Нажмите на изображение, чтобы увидеть в полный размер  
1 шт.
Нажмите на изображение, чтобы увидеть в полный размер  
1 шт.
Нажмите на изображение, чтобы увидеть в полный размер  
1 шт.
Нажмите на изображение, чтобы увидеть в полный размер  
1 шт.
Нажмите на изображение, чтобы увидеть в полный размер  
1 шт.
Нажмите на изображение, чтобы увидеть в полный размер  
1 шт.
Нажмите на изображение, чтобы увидеть в полный размер  
1 шт.
Нажмите на изображение, чтобы увидеть в полный размер  
1 шт.
КУБКИ

СТАЖ

МЕДАЛИ
Награды:124

За помощь проекту (3) За отличные раздачи и качество (76) За отличные комментарии (6) Почётный форумчанин (6) Верный Сид (30) За участие в конкурсах/играх (1)

Аватара пользователя
Тортуга
filbi1976
Администратор-Корсар

Непрочитанное сообщение Garry » 08 сен 2019, 16:45

Дорогой filbi1976! Благодарю вас за отличный фильм. Замечательный, добрый фильм. :10 balov: :super: :-D: :beer_:
КУБКИ

СТАЖ

МЕДАЛИ
Награды:54

За помощь проекту (15) Лучший по количеству кубков (14) За отличные раздачи и качество (1) За отличные комментарии (9) Почётный форумчанин (4) Верный Сид (11)

Аватара пользователя
Garry
Заслуженный Корсар-Вип+

Непрочитанное сообщение verybigpapa » 02 окт 2019, 10:27

Уважаемый filbi1976, большое спасибо. :hi: :respect:
Улыбайтесь, господа! Улыбайтесь!
КУБКИ

СТАЖ

МЕДАЛИ
Награды:62

За помощь проекту (23) Лучший по количеству кубков (9) За отличные комментарии (10) Почётный форумчанин (2) Верный Сид (18)

Аватара пользователя
СССР
verybigpapa
Заслуженный Корсар-Вип

Непрочитанное сообщение kwazar312 » 02 окт 2019, 10:37

Нет, я все понимаю- отчаянное желание любить и быть любимой, иметь семью, детишек, дефицит на деревне нормальных женихов среднего возраста, одиночество...Но ЗАЧЕМ каждый раз продавать дом и ехать неизвестно куда? Может, Кате пора уже включать мозги и не наступать на одни и те же грабли? Сначала, может, надо съездить и посмотреть, куда ее " жених" приглашает? А там люби себе на здоровье, никто ж не запрещает.
:hi: :respect:
КУБКИ

СТАЖ

МЕДАЛИ
Награды:128

За помощь проекту (12) Лучший по количеству кубков (39) За отличные раздачи и качество (2) За отличные комментарии (22) Почётный форумчанин (3) Верный Сид (44) За участие в конкурсах/играх (6)

Аватара пользователя
kwazar312
Заслуженный Корсар-Вип


Вернуться в Кино времён СССР



Uptime по данным Ping-Admin.Ru - сервиса мониторинга доступности сайтов
Рейтинг@Mail.ru