logo
Международный русскоязычный
торрент-трекер
Menu
Магазин-KorsaRDoublon
Поделиться с друзьями: 
Голосуй за Корсар и получай дублоны
Рейтинг торрент трекеров - UpTracker.ru

Various Artists - Live At Wacken 2013 Disc 1 (2014, Heavy, Thrash, Speed, BDRip 1080p) - KORSAR

Сообщение likko » 11 янв 2017, 17:05


Название: Live at Wacken 2013 Disc 1
Исполнитель: Various Artists
Год выхода: 2014
Жанр: Heavy, Thrash, Speed, Power, Death and other Metal
Продолжительность: 02:54:58

Исполнитель: Sabaton, Trivium, Anthrax, Annihilator, Agnostic Front, DevilDriver, Soilwork, Thunder, Deep Purple, Motorhead, Alice Cooper, Doro, Lingua Mortis Orchestra featuring Rage, Nightwish, Pretty Maids, Ugly Kid Joe, Alestorm, Sonata Arctica, Ihsahn, Candlemass, Secret Sphere, Mustasch, Heaven's Basement, Fozzy, Emergency Gate, Whitechapel, Ragnarok, Black Messiah, Corvus Corax, Amorphis, Legion Of The Damned, Dew Scented, Soulless, Rebattered, Hate Squad, Run Liberty Run, Null DB, Serum 114, Die Kassierer, Kamikaze Kings, Alpha Tiger, Chrome Molly, Dezperadoz

Описание: Первый диск из трёх BD. Хиты, легенды, фанаты - и много, много запоминающихся шоу.
Это грандиозное событие проходит ежегодно в местечке Вакен (Германия, район Гамбурга). За время своего существования фестиваль прошел путь от любительского концерта под открытым небом до одного из самых профессиональных по организации и качественных по составу участников мероприятия среди себе подобных.

01. Sabaton - Carolus Rex
02. Sabaton - Swedish Pagans
03. Sabaton - Primo Victoria
04. Trivium - Brave This Storm
05. Anthrax - Deathrider
06. Anthrax - Indians
07. Anthrax - Fight 'Em 'Til You Can't
08. Annihilator - No Way Out
09. Annihilator - Set the World on fire
10. Agnostic Front - All Is Not Forgotten
11. Agnostic Front - Gotta Go
12. Agnostic Front - Take Me Back
13. DevilDriver - The Appetite
14. Soilwork - Parasite Blues
15. Soilwork - Tongues
16. Soilwork - Rise Above The Sentiment
17. Thunder - The Devil Made Me Do It
18. Thunder- Love Walked In
19. Thunder - I Love You More Than Rock 'n' Roll
20. Deep Purple - Lazy
21. Motorhead - Damage Case
22. Motorhead - Metropolis
23. Alice Cooper - Billion Dollar Babies
24. Alice Cooper - Hey Stoopid
25. Doro - Raise Your Fist In The Air
26. Doro - Rock Till Death
27. Doro - Revenge
28. Lingua Mortis Orchestra featuring Rage - Cleansed By Fire
29. Lingua Mortis Orchestra featuring Rage - Empty Hollow
30. Lingua Mortis Orchestra featuring Rage - Scapegoat
31. Nightwish - Storytime
32. Nightwish - Romanticide
33. Nightwish - Ghost Love Score

Качество: BDRip 1080p
Формат: MKV
Видео кодек: H264
Аудио кодек: AC3, PCM
Видео: MPEG4 Video (H264), 1920x1080, 29.97fps, 12.0 Mbps
Аудио: Dolby AC3, 48000 Hz, 6ch, 640 kbps
Аудио: PCM, 48000 Hz, 2ch, 1536 kbps



General
Unique ID : 188005499206702398184793715022764850906 (0x8D708AC4A6D1D92B9C2BCD8AFB6A3EDA)
Complete name : F:\Torrent 2\2013.Live.At.Wacken.Disk.1.likko.mkv
Format : Matroska
Format version : Version 4 / Version 2
File size : 17.3 GiB
Duration : 2 h 54 min
Overall bit rate : 14.2 Mb/s
Movie name : 2013 Live At Wacken Disk 1 / Rip by likko for korsar.tv
Encoded date : UTC 2017-01-09 09:23:51
Writing application : mkvmerge v8.3.0 ('Over the Horizon') 64bit
Writing library : libebml v1.3.1 + libmatroska v1.4.2

Video
ID : 1
Format : AVC
Format/Info : Advanced Video Codec
Format profile : High@L4.1
Format settings, CABAC : Yes
Format settings, ReFrames : 5 frames
Codec ID : V_MPEG4/ISO/AVC
Duration : 2 h 54 min
Bit rate : 12.0 Mb/s
Width : 1 920 pixels
Height : 1 080 pixels
Display aspect ratio : 16:9
Frame rate mode : Constant
Frame rate : 29.970 (30000/1001) FPS
Color space : YUV
Chroma subsampling : 4:2:0
Bit depth : 8 bits
Scan type : Progressive
Bits/(Pixel*Frame) : 0.193
Stream size : 14.7 GiB (85%)
Title : 2013 Live At Wacken Disk 1
Writing library : x264 core 146 r2538 121396c
Encoding settings : cabac=1 / ref=5 / deblock=1:-1:-1 / analyse=0x3:0x133 / me=umh / subme=11 / psy=1 / psy_rd=1.11:0.23 / mixed_ref=1 / me_range=24 / chroma_me=1 / trellis=2 / 8x8dct=1 / cqm=0 / deadzone=21,11 / fast_pskip=0 / chroma_qp_offset=-3 / threads=12 / lookahead_threads=2 / sliced_threads=0 / nr=0 / decimate=1 / interlaced=0 / bluray_compat=0 / constrained_intra=0 / bframes=8 / b_pyramid=2 / b_adapt=2 / b_bias=0 / direct=3 / weightb=1 / open_gop=0 / weightp=2 / keyint=250 / keyint_min=25 / scenecut=40 / intra_refresh=0 / rc=2pass / mbtree=0 / bitrate=12000 / ratetol=1.0 / qcomp=0.60 / qpmin=0 / qpmax=69 / qpstep=4 / cplxblur=20.0 / qblur=0.5 / ip_ratio=1.40 / pb_ratio=1.30 / aq=2:1.00
Language : English
Default : Yes
Forced : No

Audio #1
ID : 2
Format : AC-3
Format/Info : Audio Coding 3
Mode extension : CM (complete main)
Format settings, Endianness : Big
Codec ID : A_AC3
Duration : 2 h 54 min
Bit rate mode : Constant
Bit rate : 640 kb/s
Channel(s) : 6 channels
Channel positions : Front: L C R, Side: L R, LFE
Sampling rate : 48.0 kHz
Frame rate : 31.250 FPS (1536 spf)
Bit depth : 16 bits
Compression mode : Lossy
Stream size : 801 MiB (5%)
Title : AC3 6ch
Language : English
Default : Yes
Forced : No

Audio #2
ID : 3
Format : PCM
Codec ID : A_PCM/INT/LIT
Duration : 2 h 54 min
Bit rate mode : Constant
Bit rate : 1 536 kb/s
Channel(s) : 2 channels
Sampling rate : 48.0 kHz
Frame rate : 32.000 FPS (1500 spf)
Bit depth : 16 bits
Stream size : 1.88 GiB (11%)
Title : PCM 2ch
Language : English
Default : No
Forced : No

Menu
00:00:00.000 : en:Chapter 01
00:04:52.025 : en:Chapter 02
00:08:56.569 : en:Chapter 03
00:13:27.907 : en:Chapter 04
00:18:06.351 : en:Chapter 05
00:21:32.157 : en:Chapter 06
00:29:24.929 : en:Chapter 07
00:35:45.510 : en:Chapter 08
00:41:31.155 : en:Chapter 09
00:46:42.866 : en:Chapter 10
00:49:13.850 : en:Chapter 11
00:53:28.371 : en:Chapter 12
00:55:52.816 : en:Chapter 13
01:01:10.683 : en:Chapter 14
01:05:54.199 : en:Chapter 15
01:10:22.834 : en:Chapter 16
01:14:36.421 : en:Chapter 17
01:19:43.995 : en:Chapter 18
01:27:16.847 : en:Chapter 19
01:33:02.126 : en:Chapter 20
01:40:57.434 : en:Chapter 21
01:45:01.778 : en:Chapter 22
01:49:14.163 : en:Chapter 23
01:52:48.478 : en:Chapter 24
01:57:20.983 : en:Chapter 25
02:00:21.713 : en:Chapter 26
02:04:07.572 : en:Chapter 27
02:08:29.934 : en:Chapter 28
02:19:15.546 : en:Chapter 29
02:25:53.243 : en:Chapter 30
02:33:10.747 : en:Chapter 31
02:38:49.419 : en:Chapter 32
02:44:05.768 : en:Chapter 33







Аватара пользователя
likko
Уважаемый Релизёр-Корсар
 
 

Награды: 4
Лучший по количеству кубков (4)
  • Торрент
Для скачивания торрента необходимо зарегистрироваться или войти на трекер.

Вернуться в Концерты



мониторинг сайтов