logo
Международный русскоязычный
торрент-трекер
Menu

Doublon
Поделиться с друзьями: 
Голосуй за Корсар и получи 150 дублонов
Рейтинг торрент трекеров - UpTracker.ru

В поисках приключений / The Quest (1996,боевик, триллер, приключения, BDRip 720p) - KORSAR

Сообщение lesnik125 » 14 апр 2018, 19:38

В поисках приключений

The Quest

«Пройди весь путь до конца!»


Страна: США, Канада
Жанр: боевик, триллер, приключения
Год выпуска: 1996
Продолжительность: 01:34:35
Перевод: Профессиональный (многоголосый, закадровый), Профессиональный (двухголосый, закадровый),Авторский
Субтитры: русские, английские.

Режиссер: Жан-Клод Ван Дамм / Jean-Claude Van Damme

В ролях: Жан-Клод Ван Дамм (Christopher Dubois), Роджер Мур (Lord Edgar Dobbs), Джеймс Римар (Maxie Devine), Джанет Ганн (Carrie Newton), Джек МакГи (Harry Smythe), Аки Алеонг (Khao), Абдель Кисси (Khan (Mongolian Fighter)), Луис Мэндилор (Riggi), Чанг Чинг Пенг Чаплин (Master Tchi), Райан Кутрона (Officer O'Keefe), Шейн Майер (Red), Мэтт Лион (Billy)

Описание: Было время, когда в мире еще хватало места для пиратской резни, ловушек контрабандистов, работорговцев и древних тайн загадочного Востока. Когда настоящие мужчины могли отправиться на поиски невероятных приключений. Уличный преступник отправляется в путешествие в поисках своего прошлого и будущего.





Качество: BDRip 720p
Контейнер: MKV

Видео: MPEG-4 AVC, 1280x544 (2.35:1), 5600 kbps, 23,976 fps, 0,335 bpp
Аудио №1: русский / AC3 / 5.1 / 48 kHz / 384 kbps / DVO ( Twister )
Аудио №2: русский / AC3 / 2.0 / 48 kHz / 192 kbps / MVO ( ТK "Россия" (Студия Нота, 1999) )
Аудио №3: русский / AC3 / 2.0 / 48 kHz / 192 kbps / MVO
Аудио №4: русский / AC3 / 2.0 / 48 kHz / 192 kbps / MVO ( ОРТ )
Аудио №5: русский / AC3 / 2.0 / 48 kHz / 192 kbps / DVO ( ТВЦ )
Аудио №6: русский / AC3 / 5.1 / 48 kHz / 640 kbps / AVO ( Живов )
Аудио №7: русский / AC3 / 2.0 / 48 kHz / 192 kbps / AVO ( Гаврилов )
Аудио №8: русский / AC3 / 2.0 / 48 kHz / 192 kbps / AVO ( Кашкин )
Аудио №9: английский / AC3 / 5.1 / 48 kHz / 640 kbps
Навигация по главам: есть

******************************************************************
x264 [info]: frame I:1174 Avg QP:14.31 size:149596
x264 [info]: frame P:31759 Avg QP:17.51 size: 51101
x264 [info]: frame B:103130 Avg QP:19.32 size: 21042
******************************************************************

Формат : Matroska
Версия формата : Version 2
Размер файла : 5,56 Гбайт
Продолжительность : 1 ч. 34 м.
Общий поток : 8414 Кбит/сек
Название фильма : = В поисках приключений / The Quest (1996) BDRip 720p - KORSAR =
Дата кодирования : UTC 2018-04-14 14:27:15
Программа кодирования : mkvmerge v5.8.0 ('No Sleep / Pillow') built on Sep 2 2012 15:37:04
Библиотека кодирования : libebml v1.2.3 + libmatroska v1.3.0
Attachment : Yes

Видео
Идентификатор : 1
Формат : AVC
Формат/Информация : Advanced Video Codec
Профиль формата : High@L4.1
Параметр CABAC формата : Да
Параметр ReFrames формата : 12 кадров
Идентификатор кодека : V_MPEG4/ISO/AVC
Продолжительность : 1 ч. 34 м.
Битрейт : 5600 Кбит/сек
Ширина : 1280 пикселей
Высота : 544 пикселя
Соотношение сторон : 2,35:1
Режим частоты кадров : Постоянный
Частота кадров : 23,976 кадра/сек
Цветовое пространство : YUV
Субдискретизация насыщенности : 4:2:0
Битовая глубина : 8 бит
Тип развёртки : Прогрессивная
Бит/(Пиксели*Кадры) : 0.335
Размер потока : 3,59 Гбайт (65%)
Заголовок : В поисках приключений / The Quest (1996) BDRip 720p - KORSAR
Библиотека кодирования : x264 core 148 r2744kMod b97ae06
Настройки программы : cabac=1 / ref=12 / deblock=1:-3:-3 / analyse=0x3:0x113 / me=umh / subme=11 / psy=1 / fade_compensate=0.00 / psy_rd=1.05:0.05 / mixed_ref=1 / me_range=32 / chroma_me=1 / trellis=2 / 8x8dct=1 / cqm=0 / deadzone=21,11 / fast_pskip=0 / chroma_qp_offset=-3 / threads=12 / lookahead_threads=3 / sliced_threads=0 / nr=0 / decimate=0 / interlaced=0 / bluray_compat=0 / constrained_intra=0 / bframes=10 / b_pyramid=2 / b_adapt=2 / b_bias=0 / direct=3 / weightb=1 / open_gop=0 / weightp=2 / keyint=240 / keyint_min=23 / scenecut=40 / intra_refresh=0 / rc_lookahead=60 / rc=2pass / mbtree=0 / bitrate=5600 / ratetol=1.0 / qcomp=0.60 / qpmin=0 / qpmax=39 / qpstep=4 / cplxblur=20.0 / qblur=0.5 / vbv_maxrate=50000 / vbv_bufsize=62500 / nal_hrd=none / filler=0 / ip_ratio=1.40 / pb_ratio=1.30 / aq=3:0.80
Язык : English
Default : Да
Forced : Нет
Основные цвета : BT.709
Характеристики трансфера : BT.709
Коэффициенты матрицы : BT.709

Аудио #1
Идентификатор : 2
Формат : AC-3
Формат/Информация : Audio Coding 3
Расширение режима : CM (complete main)
Параметр Endianness формата : Big
Идентификатор кодека : A_AC3
Продолжительность : 1 ч. 34 м.
Вид битрейта : Постоянный
Битрейт : 384 Кбит/сек
Каналы : 6 каналов
Расположение каналов : Front: L C R, Side: L R, LFE
Частота : 48,0 КГц
Битовая глубина : 16 бит
Метод сжатия : С потерями
Размер потока : 260 Мбайт (5%)
Заголовок : DVO ( Twister )
Язык : Russian
Default : Да
Forced : Нет

Аудио #2
Идентификатор : 3
Формат : AC-3
Формат/Информация : Audio Coding 3
Расширение режима : CM (complete main)
Параметр Endianness формата : Big
Идентификатор кодека : A_AC3
Продолжительность : 1 ч. 34 м.
Вид битрейта : Постоянный
Битрейт : 192 Кбит/сек
Каналы : 2 канала
Расположение каналов : Front: L R
Частота : 48,0 КГц
Битовая глубина : 16 бит
Метод сжатия : С потерями
Размер потока : 130 Мбайт (2%)
Заголовок : MVO ( ТK "Россия" (Студия Нота, 1999) )
Язык : Russian
Default : Нет
Forced : Нет

Аудио #3
Идентификатор : 4
Формат : AC-3
Формат/Информация : Audio Coding 3
Расширение режима : CM (complete main)
Параметр Endianness формата : Big
Идентификатор кодека : A_AC3
Продолжительность : 1 ч. 34 м.
Вид битрейта : Постоянный
Битрейт : 192 Кбит/сек
Каналы : 2 канала
Расположение каналов : Front: L R
Частота : 48,0 КГц
Битовая глубина : 16 бит
Метод сжатия : С потерями
Размер потока : 130 Мбайт (2%)
Заголовок : MVO
Язык : Russian
Default : Нет
Forced : Нет

Аудио #4
Идентификатор : 5
Формат : AC-3
Формат/Информация : Audio Coding 3
Расширение режима : CM (complete main)
Параметр Endianness формата : Big
Идентификатор кодека : A_AC3
Продолжительность : 1 ч. 34 м.
Вид битрейта : Постоянный
Битрейт : 192 Кбит/сек
Каналы : 2 канала
Расположение каналов : Front: L R
Частота : 48,0 КГц
Битовая глубина : 16 бит
Метод сжатия : С потерями
Размер потока : 130 Мбайт (2%)
Заголовок : MVO ( ОРТ )
Язык : Russian
Default : Нет
Forced : Нет

Аудио #5
Идентификатор : 6
Формат : AC-3
Формат/Информация : Audio Coding 3
Расширение режима : CM (complete main)
Параметр Endianness формата : Big
Идентификатор кодека : A_AC3
Продолжительность : 1 ч. 34 м.
Вид битрейта : Постоянный
Битрейт : 192 Кбит/сек
Каналы : 2 канала
Расположение каналов : Front: L R
Частота : 48,0 КГц
Битовая глубина : 16 бит
Метод сжатия : С потерями
Размер потока : 130 Мбайт (2%)
Заголовок : DVO ( ТВЦ )
Язык : Russian
Default : Нет
Forced : Нет

Аудио #6
Идентификатор : 7
Формат : AC-3
Формат/Информация : Audio Coding 3
Расширение режима : CM (complete main)
Параметр Endianness формата : Big
Идентификатор кодека : A_AC3
Продолжительность : 1 ч. 34 м.
Вид битрейта : Постоянный
Битрейт : 640 Кбит/сек
Каналы : 6 каналов
Расположение каналов : Front: L C R, Side: L R, LFE
Частота : 48,0 КГц
Битовая глубина : 16 бит
Метод сжатия : С потерями
Размер потока : 433 Мбайт (8%)
Заголовок : AVO ( Живов )
Язык : Russian
Default : Нет
Forced : Нет

Аудио #7
Идентификатор : 8
Формат : AC-3
Формат/Информация : Audio Coding 3
Расширение режима : CM (complete main)
Параметр Endianness формата : Big
Идентификатор кодека : A_AC3
Продолжительность : 1 ч. 34 м.
Вид битрейта : Постоянный
Битрейт : 192 Кбит/сек
Каналы : 2 канала
Расположение каналов : Front: L R
Частота : 48,0 КГц
Битовая глубина : 16 бит
Метод сжатия : С потерями
Размер потока : 130 Мбайт (2%)
Заголовок : AVO ( Гаврилов )
Язык : Russian
Default : Нет
Forced : Нет

Аудио #8
Идентификатор : 9
Формат : AC-3
Формат/Информация : Audio Coding 3
Расширение режима : CM (complete main)
Параметр Endianness формата : Big
Идентификатор кодека : A_AC3
Продолжительность : 1 ч. 34 м.
Вид битрейта : Постоянный
Битрейт : 192 Кбит/сек
Каналы : 2 канала
Расположение каналов : Front: L R
Частота : 48,0 КГц
Битовая глубина : 16 бит
Метод сжатия : С потерями
Размер потока : 130 Мбайт (2%)
Заголовок : AVO ( Кашкин )
Язык : Russian
Default : Нет
Forced : Нет

Аудио #9
Идентификатор : 10
Формат : AC-3
Формат/Информация : Audio Coding 3
Расширение режима : CM (complete main)
Параметр Endianness формата : Big
Идентификатор кодека : A_AC3
Продолжительность : 1 ч. 34 м.
Вид битрейта : Постоянный
Битрейт : 640 Кбит/сек
Каналы : 6 каналов
Расположение каналов : Front: L C R, Side: L R, LFE
Частота : 48,0 КГц
Битовая глубина : 16 бит
Метод сжатия : С потерями
Размер потока : 433 Мбайт (8%)
Язык : English
Default : Нет
Forced : Нет

Текст #1
Идентификатор : 11
Формат : UTF-8
Идентификатор кодека : S_TEXT/UTF8
Идентификатор кодека/Информация : UTF-8 Plain Text
Язык : Russian
Default : Нет
Forced : Нет

Текст #2
Идентификатор : 12
Формат : UTF-8
Идентификатор кодека : S_TEXT/UTF8
Идентификатор кодека/Информация : UTF-8 Plain Text
Язык : English
Default : Нет
Forced : Нет

Меню
00:00:00.000 : en:00:00:00.000
00:03:02.307 : en:00:03:02.307
00:07:03.923 : en:00:07:03.923
00:14:49.889 : en:00:14:49.889
00:20:49.665 : en:00:20:49.665
00:27:52.504 : en:00:27:52.504
00:35:59.282 : en:00:35:59.282
00:40:10.074 : en:00:40:10.074
00:46:52.184 : en:00:46:52.184
00:52:59.384 : en:00:52:59.384
00:59:32.568 : en:00:59:32.568
01:09:12.857 : en:01:09:12.857
01:14:04.273 : en:01:14:04.273
01:21:10.740 : en:01:21:10.740
01:25:49.644 : en:01:25:49.644
01:29:48.299 : en:01:29:48.299




Аватара пользователя
lesnik125
Главный Модератор-Корсар
 
 

Награды: 38
За помощь проекту (6) Лучший по количеству кубков (3) За отличные раздачи и качество (21) За подробное оформление раздач (2) Верный Сид (4)
Раздачи группы KORSAR разрешено перезаливать спустя сутки после публикации
  • Торрент
Для скачивания торрента необходимо зарегистрироваться или войти на трекер.

Сообщение Korsar » 14 апр 2018, 19:42

Спасибо Серега. :-drinks: :good:

Боцман
Аватара пользователя
Korsar
Заслуженный Корсар-Вип+
 
 

Награды: 32
За помощь проекту (2) Лучший по количеству кубков (2) За отличные раздачи и качество (13) За подробное оформление раздач (1) За отличные комментарии (1) Верный Сид (11) За участие в конкурсах/играх (2)

Сообщение filbi1976 » 15 апр 2018, 01:25

Серёга, спасибо! :hi: :-drinks:
Аватара пользователя
filbi1976
Администратор-Корсар
 
 

Награды: 56
За помощь проекту (1) За отличные раздачи и качество (41) Верный Сид (11) За участие в конкурсах/играх (1)

Сообщение lesnik125 » 15 апр 2018, 12:58

Ребята, огромное пожалуйста. :-drinks: :friends:
Аватара пользователя
lesnik125
Главный Модератор-Корсар
 
 

Награды: 38
За помощь проекту (6) Лучший по количеству кубков (3) За отличные раздачи и качество (21) За подробное оформление раздач (2) Верный Сид (4)


Вернуться в Зарубежное кино (1991-2000 / HD Video)



Uptime по данным Ping-Admin.Ru - сервиса мониторинга доступности сайтов
Рейтинг@Mail.ru