logo
Международный русскоязычный
торрент-трекер
Menu
Doublon
Поделиться с друзьями: 
Голосуй за Корсар и получи 500 дублонов
Рейтинг торрент трекеров - UpTracker.ru

В поисках галактики / Galaxy Quest (1999, фантастика, комедия, приключения, BDRip-HEVC 1080p)

Сообщение NoMaD » 12 ноя 2019, 12:09

Название: В поисках галактики
Оригинальное название: Galaxy Quest
Год выпуска: 1999
Жанр: фантастика, комедия, приключения
Режиссёр: Дин Паризо
В ролях: Тим Аллен, Сигурни Уивер, Алан Рикман, Тони Шэлоуб, Сэм Рокуэлл, Дэрил Митчелл, Энрико Колантони, Робин Сакс, Патрик Брин, Мисси Пайл

О фильме: Вся Америка усаживалась к телеэкранам, когда начинался любимый зрителями сериал «В поисках Галактики». Герои этой фантастической саги были воистину народными героями. Но прошли годы, и сериал надоел телевизионным боссам. «В поисках Галактики» закрыли, а труппу распустили на все четыре стороны.



Выпущено: США / DreamWorks, Gran Via Productions
Продолжительность: 01:42:08
Перевод: Профессиональный многоголосый

Видео кодек: x265
Качество: BDRip-HEVC 1080p
Видео: HEVC, 1920x816, 10,2 Мbps Кбит/сек, 23.976 кадр/сек, 10 бит
Аудио 1: AC3, 6 ch, 448 Kbps - Русский, (MVO, Лицензия DVD R5)
Аудио 2: AC3, 2 ch, 192 Kbps - Русский, (MVO, ОРТ)
Аудио 3: AC3, 6 ch, 640 Kbps - Английский, (Original)

Субтитры: Русские, английские



Автор: Mr. Fox
Группа:

Общее
Уникальный идентификатор : 284339387171284475366249359580218260097 (0xD5E9C625A9AF9760D455379F4817FA81)
Полное имя : R:Galaxy Quest (1999) BDRip 1080p [HEVC].mkv
Формат : Matroska
Версия формата : Version 4 / Version 2
Размер файла : 8,19 Гбайт
Продолжительность : 1 ч. 42 м.
Общий поток : 11,5 Мбит/сек
Название фильма : Galaxy Quest (1999)
Дата кодирования : UTC 2019-11-07 05:50:24
Программа кодирования : mkvmerge v37.0.0 ('Leave It') 64-bit
Библиотека кодирования : libebml v1.3.9 + libmatroska v1.5.2
Обложка : Yes
Attachments : cover.jpg

Видео
Идентификатор : 1
Формат : HEVC
Формат/Информация : High Efficiency Video Coding
Профиль формата : Main 10@L4.1@High
Идентификатор кодека : V_MPEGH/ISO/HEVC
Продолжительность : 1 ч. 42 м.
Битрейт : 10,2 Мбит/сек
Ширина : 1920 пикселей
Высота : 816 пикселей
Соотношение сторон : 2,35:1
Режим частоты кадров : Постоянный
Частота кадров : 23,976 (23976/1000) кадра/сек
Частота кадров в оригинале : 23,976 (24000/1001) кадра/сек
Цветовое пространство : YUV
Субдискретизация насыщенности : 4:2:0
Битовая глубина : 10 бит
Бит/(Пиксели*Кадры) : 0.272
Размер потока : 7,28 Гбайт (89%)
Библиотека кодирования : x265 3.1.2+1-76650bab70f9:[Windows][MSVC 1922][64 bit] 10bit
Настройки программы : cpuid=1111039 / frame-threads=3 / numa-pools=12 / wpp / no-pmode / no-pme / no-psnr / no-ssim / log-level=2 / input-csp=1 / input-res=1920x816 / interlace=0 / total-frames=140224 / level-idc=41 / high-tier=1 / uhd-bd=0 / ref=5 / no-allow-non-conformance / no-repeat-headers / annexb / no-aud / no-hrd / info / hash=0 / no-temporal-layers / open-gop / min-keyint=23 / keyint=240 / gop-lookahead=0 / bframes=13 / b-adapt=2 / b-pyramid / bframe-bias=0 / rc-lookahead=60 / lookahead-slices=4 / scenecut=40 / radl=0 / no-splice / no-intra-refresh / ctu=32 / min-cu-size=8 / rect / amp / max-tu-size=32 / tu-inter-depth=4 / tu-intra-depth=4 / limit-tu=1 / rdoq-level=2 / dynamic-rd=0.00 / no-ssim-rd / signhide / no-tskip / nr-intra=0 / nr-inter=0 / no-constrained-intra / no-strong-intra-smoothing / max-merge=4 / limit-refs=2 / limit-modes / me=3 / subme=7 / merange=57 / temporal-mvp / weightp / weightb / no-analyze-src-pics / deblock=-3:-3 / no-sao / no-sao-non-deblock / rd=6 / no-early-skip / no-rskip / no-fast-intra / no-tskip-fast / no-cu-lossless / no-b-intra / no-splitrd-skip / rdpenalty=0 / psy-rd=2.00 / psy-rdoq=1.00 / no-rd-refine / no-lossless / cbqpoffs=0 / crqpoffs=0 / rc=crf / crf=20.0 / qcomp=0.60 / qpstep=4 / stats-write=0 / stats-read=0 / vbv-maxrate=50000 / vbv-bufsize=50000 / vbv-init=0.9 / crf-max=0.0 / crf-min=0.0 / ipratio=1.40 / pbratio=1.30 / aq-mode=1 / aq-strength=1.00 / no-cutree / zone-count=0 / no-strict-cbr / qg-size=32 / no-rc-grain / qpmax=69 / qpmin=0 / no-const-vbv / sar=1 / overscan=0 / videoformat=5 / range=0 / colorprim=1 / transfer=1 / colormatrix=1 / chromaloc=0 / display-window=0cll=0,0 / min-luma=0 / max-luma=1023 / log2-max-poc-lsb=8 / vui-timing-info / vui-hrd-info / slices=1 / no-opt-qp-pps / no-opt-ref-list-length-pps / no-multi-pass-opt-rps / scenecut-bias=0.05 / no-opt-cu-delta-qp / no-aq-motion / no-hdr / no-hdr-opt / no-dhdr10-opt / no-idr-recovery-sei / analysis-reuse-level=5 / scale-factor=0 / refine-intra=0 / refine-inter=0 / refine-mv=0 / refine-ctu-distortion=0 / no-limit-sao / ctu-info=0 / no-lowpass-dct / refine-analysis-type=0 / copy-pic=1 / max-ausize-factor=1.0 / no-dynamic-refine / no-single-sei / no-hevc-aq / no-svt / no-field / qp-adaptation-range=1.00
Default : Да
Forced : Нет
Цветовой диапазон : Limited
Основные цвета : BT.709
Характеристики трансфера : BT.709
Коэффициенты матрицы : BT.709

Аудио #1
Идентификатор : 2
Формат : AC-3
Формат/Информация : Audio Coding 3
Идентификатор кодека : A_AC3
Продолжительность : 1 ч. 42 м.
Вид битрейта : Постоянный
Битрейт : 448 Кбит/сек
Каналы : 6 каналов
Расположение каналов : Front: L C R, Side: L R, LFE
Частота : 48,0 КГц
Частота кадров : 31,250 кадров/сек (1536 SPF)
Битовая глубина : 16 бит
Метод сжатия : С потерями
Размер потока : 327 Мбайт (4%)
Заголовок : DVD
Язык : Russian
ServiceKind/ : Complete Main
Default : Да
Forced : Нет

Аудио #2
Идентификатор : 3
Формат : AC-3
Формат/Информация : Audio Coding 3
Идентификатор кодека : A_AC3
Продолжительность : 1 ч. 42 м.
Вид битрейта : Постоянный
Битрейт : 192 Кбит/сек
Каналы : 2 канала
Расположение каналов : Front: L R
Частота : 48,0 КГц
Частота кадров : 31,250 кадров/сек (1536 SPF)
Битовая глубина : 16 бит
Метод сжатия : С потерями
Размер потока : 140 Мбайт (2%)
Заголовок : ORT
Язык : Russian
ServiceKind/ : Complete Main
Default : Нет
Forced : Нет

Аудио #3
Идентификатор : 4
Формат : AC-3
Формат/Информация : Audio Coding 3
Идентификатор кодека : A_AC3
Продолжительность : 1 ч. 42 м.
Вид битрейта : Постоянный
Битрейт : 640 Кбит/сек
Каналы : 6 каналов
Расположение каналов : Front: L C R, Side: L R, LFE
Частота : 48,0 КГц
Частота кадров : 31,250 кадров/сек (1536 SPF)
Битовая глубина : 16 бит
Метод сжатия : С потерями
Размер потока : 468 Мбайт (6%)
Заголовок : Original
Язык : English
ServiceKind/ : Complete Main
Default : Нет
Forced : Нет

Текст #1
Идентификатор : 5
Формат : UTF-8
Идентификатор кодека : S_TEXT/UTF8
Идентификатор кодека/Информация : UTF-8 Plain Text
Продолжительность : 1 ч. 36 м.
Битрейт : 107 бит/сек
ElementCount : 1338
Размер потока : 76,1 Кбайт (0%)
Заголовок : Full
Язык : Russian
Default : Нет
Forced : Нет

Текст #2
Идентификатор : 6
Формат : UTF-8
Идентификатор кодека : S_TEXT/UTF8
Идентификатор кодека/Информация : UTF-8 Plain Text
Продолжительность : 1 ч. 41 м.
Битрейт : 64 бит/сек
ElementCount : 1270
Размер потока : 47,6 Кбайт (0%)
Заголовок : Full
Язык : English
Default : Нет
Forced : Нет

Меню
00:00:00.000 : en:00:00:00.000
00:06:14.249 : en:00:06:14.249
00:11:09.544 : en:00:11:09.544
00:15:19.418 : en:00:15:19.418
00:20:05.913 : en:00:20:05.913
00:25:26.525 : en:00:25:26.525
00:33:06.234 : en:00:33:06.234
00:38:25.136 : en:00:38:25.136
00:42:12.613 : en:00:42:12.613
00:46:37.086 : en:00:46:37.086
00:50:24.188 : en:00:50:24.188
00:55:22.361 : en:00:55:22.361
01:02:02.052 : en:01:02:02.052
01:07:23.289 : en:01:07:23.289
01:10:33.479 : en:01:10:33.479
01:16:05.519 : en:01:16:05.519
01:23:24.541 : en:01:23:24.541
01:28:24.382 : en:01:28:24.382
01:32:37.927 : en:01:32:37.927
01:37:30.261 : en:01:37:30.261

КУБКИ

СТАЖ

МЕДАЛИ
Награды:8

За помощь проекту в 100 рублей (1) За отличные раздачи и качество (1) Почётный форумчанин (1)

Аватара пользователя
NoMaD
Релизёр-Корсар
  • Торрент
Для скачивания торрента необходимо зарегистрироваться или войти на трекер.

Вернуться в Фильмы HEVC (HEVC Video)



Uptime по данным Ping-Admin.Ru - сервиса мониторинга доступности сайтов
Рейтинг@Mail.ru