logo
Международный русскоязычный
торрент-трекер
Menu
Doublon
Поделиться с друзьями: 
Голосуй за Корсар и получи 500 дублонов
Рейтинг торрент трекеров - UpTracker.ru

Успех (2019, комедия, мелодрама, WEB-DL 1080p) | iTunes

Сообщение kisa1980 » 29 фев 2020, 19:24

Название: Успех
Год выхода: 2019
Жанр: Комедия, мелодрама
Режиссер: Павел Руминов
В ролях: Роман Курцын, Мария Лобанова, Юлия Снигирь, Алексей Чадов, Николай Шрайбер, Рина Гришина, Наталья Анисимова, Евгений Шелякин, Владимир Котов, Милош Руминов

О фильме: Когда-то Лиза и Артем были дерзкой рок-группой, мечтавшей покорить мир, но после рождения дочери Виты им пришлось забыть о творчестве. Лизу никогда не «отпускала» музыка, и когда появляется шанс в Америке, она оставляет семью и уезжает. Теперь Артем растит дочь один, перебиваясь случайными заработками. Однажды ему приходится поступиться своими рокерскими принципами — спеть российскую попсу на корпоративе. Слов одного хита Артем не знает, но неожиданно выручает дочь, исполнив песню за него. Их экстравагантное выступление собирает миллионы просмотров в Интернете, чем привлекает внимание известного продюсера.



Страна: Россия
Студия: Кинодом, Леополис
Продолжительность: 01:34:58
Перевод: Не требуется | iTunes

Качество: WEB-DL 1080p
Формат: Matroska
Видео: MPEG-4 AVC, 1920x806, 4506 kbps, 24,000 fps
Звук: Русский: AC3, 2.0 ch, 48 kHz, 192 kbps
Субтитры: Нет

Релиз от:

Общее
Уникальный идентификатор : 226723729565398602295798580186995916242 (0xAA9166E8A4056828ADC7F610F10A7DD2)
Полное имя : G:Torrent2UspekhWEBDL1080p.mkv
Формат : Matroska
Версия формата : Version 4 / Version 2
Размер файла : 3,12 Гбайт
Продолжительность : 1 ч. 34 м.
Общий поток : 4700 Кбит/сек
Дата кодирования : UTC 2020-03-25 21:06:57
Программа кодирования : mkvmerge v9.5.0 ('Quiet Fire') 64bit
Библиотека кодирования : libebml v1.3.4 + libmatroska v1.4.5

Видео
Идентификатор : 1
Формат : AVC
Формат/Информация : Advanced Video Codec
Профиль формата : High@L4
Настройки формата : CABAC / 5 Ref Frames
Параметр CABAC формата : Да
Параметр RefFrames формата : 5 кадров
Идентификатор кодека : V_MPEG4/ISO/AVC
Продолжительность : 1 ч. 34 м.
Битрейт : 4506 Кбит/сек
Ширина : 1920 пикселей
Высота : 806 пикселей
Соотношение сторон : 2,40:1
Режим частоты кадров : Постоянный
Частота кадров : 24,000 кадра/сек
Цветовое пространство : YUV
Субдискретизация насыщенности : 4:2:0
Битовая глубина : 8 бит
Тип развёртки : Прогрессивная
Бит/(Пиксели*Кадры) : 0.121
Размер потока : 2,99 Гбайт (96%)
Язык : Russian
Default : Да
Forced : Нет
Цветовой диапазон : Limited
Основные цвета : BT.709
Характеристики трансфера : BT.709
Коэффициенты матрицы : BT.709

Аудио
Идентификатор : 2
Формат : AC-3
Формат/Информация : Audio Coding 3
Параметр Endianness формата : Big
Идентификатор кодека : A_AC3
Продолжительность : 1 ч. 34 м.
Вид битрейта : Постоянный
Битрейт : 192 Кбит/сек
Каналы : 2 канала
Расположение каналов : Front: L R
Частота : 48,0 КГц
Частота кадров : 31,250 кадров/сек (1536 SPF)
Битовая глубина : 16 бит
Метод сжатия : С потерями
Размер потока : 130 Мбайт (4%)
Заголовок : rus
Язык : Russian
Default : Да
Forced : Нет

Меню
00:00:00.000 : en:Глава 1
00:08:42.625 : en:Глава 2
00:17:12.291 : en:Глава 3
00:25:44.791 : en:Глава 4
00:35:07.582 : en:Глава 5
00:43:15.207 : en:Глава 6
00:51:20.165 : en:Глава 7
00:59:48.998 : en:Глава 8
01:08:25.498 : en:Глава 9
01:17:08.539 : en:Глава 10
01:25:15.872 : en:Глава 11
КУБКИ

СТАЖ

МЕДАЛИ
Награды:108

За активную помощь проекту (12) Лучший по количеству кубков (3) За отличные раздачи и качество (41) За подробное оформление раздач (8) За отличные комментарии (10) Почётный форумчанин (3) Верный Сид (28) За участие в конкурсах/играх (2)

Аватара пользователя
Тортуга
kisa1980
Главный помощник Администратора-Корсар
  • Торрент
Для скачивания торрента необходимо зарегистрироваться или войти на трекер.

Вернуться в Наше современное кино (HD Video)



Uptime по данным Ping-Admin.Ru - сервиса мониторинга доступности сайтов
Рейтинг@Mail.ru