logo
Международный русскоязычный
торрент-трекер
Menu
Doublon
Поделиться с друзьями: 
Голосуй за Корсар и получи 500 дублонов
Рейтинг торрент трекеров - UpTracker.ru

Универсальный солдат / Universal Soldier (1992, Фантастика, боевик, BDRip 720p) - KORSAR | GER Transfer

Сообщение MZMA » 22 ноя 2018, 05:21

Название: Универсальный солдат
Оригинальное название: Universal Soldier
Год выпуска: 1992
Выпущено: США, Carolco Pictures Inc., Centropolis Film Productions, IndieProd Company Productions, Studio Canal
Жанр: Фантастика, боевик, драма
Режиссер: Роланд Эммерих
В ролях: Жан-Клод Ван Дамм, Дольф Лундгрен, Элли Уокер, Эд О’Росс, Джерри Орбак, Леон Риппи, Тико Уэллс, Ральф Мёллер, Роберт Требор, Джин Дэвис, Дрю Снайдер, Томми Листер, Саймон Ри, Эрик Норрис, Майкл Уинтер, Джозеф Мэлоун, Рэнс Ховард, Лилиан Шовин, Джоэнн Барон, Люпе Онтиверос, Джек Мур, Джон Стори, Брэдфорд Бэнкрофт, Томас Розалес мл., Трини Трэн, Тай Тхай, Рэйчел Вагнер, Брэндон Лэмдин, Нед Беллами, Пол Рачовски, Дэниэл Деморест, Тэннер Гилл, Эдди Браун, Уолтер Роблз, Джофри С. Браун, Донна Харди, Леон Делани, Джордж Фишер, Дэвид Эфрон, Мирон Л. Лапка

О фильме: Вьетнам, 1969 год, первая стычка двух американских солдат — Люка и Скотта: Люк не может стрелять в безоружных людей, Скотт же готов убивать и убивать с нечеловечески-яростной жестокостью, о которой свидетельствует ожерелье из ушей, отрезанных им у вьетнамцев. Спустя годы Люк и Скотт вновь оказываются в одном отряде — спецподразделении «универсальных солдат», которых бросают на выполнение самых опасных заданий (например, на ликвидацию террористов). «Универсального солдата» можно попытаться убить, но он будет подниматься вновь и вновь, и если понадобится, то ученые, работающие над сверхсекретным военным проектом, в специальной лаборатории займутся оживлением серьезно пострадавшего «универсала». Однако, даже зная об этом, Скотт с упорством маньяка будет преследовать Люка, чтобы сойтись с ним в решающем поединке не на жизнь, а на смерть.



Продолжительность: 01:43:43
Перевод: Дублированный, профессиональный многоголосый, авторский, любительский
Субтитры: Русские, английские, немецкие
Навигация по главам: Есть

Качество: BDRip 720p
Видео: MPEG-4 AVC, 8703 Кбит/сек, 1280x544, 23,976 кадра/сек
Аудио #01: AC3, 6 ch, 384 Кбит/сек | Русский, профессиональный (многоголосый закадровый) Twister
Аудио #02: AC3, 6 ch, 448 Кбит/сек | Русский, профессиональный (многоголосый закадровый) AuraFilm
Аудио #03: AC3, 2 ch, 192 Кбит/сек | Русский, профессиональный (многоголосый закадровый) Lazer Video
Аудио #04: AC3, 2 ch, 192 Кбит/сек | Русский, профессиональный (многоголосый закадровый) СТС
Аудио #05: AC3, 2 ch, 192 Кбит/сек | Русский, профессиональный (многоголосый закадровый) Екатеринбург Арт
Аудио #06: AC3, 2 ch, 192 Кбит/сек | Русский, профессиональный дублированый Хлопушка, со вставками переводов СТС и Лазер Видео
Аудио #07: AC3, 6 ch, 448 Кбит/сек | Русский, авторский (одноголосый закадровый) Юрий Живов
Аудио #08: AC3, 6 ch, 384 Кбит/сек | Русский, авторский (одноголосый закадровый) Андрей Гаврилов
Аудио #09: AC3, 6 ch, 448 Кбит/сек | Русский, авторский (одноголосый закадровый) Василий Горчаков
Аудио #10: AC3, 6 ch, 448 Кбит/сек | Русский, авторский (одноголосый закадровый) Евгений Гаевский
Аудио #11: AC3, 2 ch, 192 Кбит/сек | Русский, любительский (одноголосый закадровый) Неизвестный
Аудио #12: AC3, 2 ch, 192 Кбит/сек | Русский, любительский (одноголосый закадровый) Петербуржец
Аудио #13: AC3, 6 ch, 448 Кбит/сек | Украинский, профессиональный (многоголосый закадровый) 1+1
Аудио #14: AC3, 6 ch, 448 Кбит/сек | Английский, оригинал
Аудио #15: AC3, 6 ch, 448 Кбит/сек | Немецкий, профессиональный (полное дублирование)

Релиз от:


x264 [info]: frame I:1044 Avg QP:15.73 size:147075
x264 [info]: frame P:32386 Avg QP:17.41 size: 75795
x264 [info]: frame B:115776 Avg QP:19.60 size: 35893
-----------------------------------------------------
Общее
Уникальный идентификатор : 243819016433148996844982790405906999312 (0xB76DD5A03780E875A10A7D0448EFA810)
Полное имя : Универсальный.солдат.1992.BDRip.720p.KORSAR.mkv
Формат : Matroska
Версия формата : Version 2
Размер файла : 9,97 Гбайт
Продолжительность : 1 ч. 43 м.
Общий поток : 13,8 Мбит/сек
Дата кодирования : UTC 2018-11-22 01:47:26
Программа кодирования : mkvmerge v5.8.0 ('No Sleep / Pillow') built on Sep 2 2012 15:37:04
Библиотека кодирования : libebml v1.2.3 + libmatroska v1.3.0

Видео
Идентификатор : 1
Формат : AVC
Формат/Информация : Advanced Video Codec
Профиль формата : High@L4.1
Настройки формата : CABAC / 12 Ref Frames
Параметр CABAC формата : Да
Параметр RefFrames формата : 12 кадров
Идентификатор кодека : V_MPEG4/ISO/AVC
Продолжительность : 1 ч. 43 м.
Битрейт : 8703 Кбит/сек
Ширина : 1280 пикселей
Высота : 544 пикселя
Соотношение сторон : 2,35:1
Режим частоты кадров : Постоянный
Частота кадров : 23,976 (24000/1001) кадра/сек
Цветовое пространство : YUV
Субдискретизация насыщенности : 4:2:0
Битовая глубина : 8 бит
Тип развёртки : Прогрессивная
Бит/(Пиксели*Кадры) : 0.521
Размер потока : 6,11 Гбайт (61%)
Заголовок : RIP | MZMA
Библиотека кодирования : x264 core 152 r2851kMod ba24899
Настройки программы : cabac=1 / ref=12 / deblock=1:-3:-2 / analyse=0x3:0x113 / me=umh / subme=11 / psy=1 / fade_compensate=0.00 / psy_rd=1.00:0.00 / mixed_ref=1 / me_range=48 / chroma_me=1 / trellis=2 / 8x8dct=1 / cqm=0 / deadzone=21,11 / fast_pskip=0 / chroma_qp_offset=-2 / threads=6 / lookahead_threads=1 / sliced_threads=0 / nr=0 / decimate=0 / interlaced=0 / bluray_compat=0 / constrained_intra=0 / bframes=16 / b_pyramid=2 / b_adapt=2 / b_bias=0 / direct=3 / weightb=1 / open_gop=0 / weightp=2 / keyint=240 / keyint_min=23 / scenecut=40 / intra_refresh=0 / rc_lookahead=40 / rc=2pass / mbtree=0 / bitrate=8703 / ratetol=1.0 / qcomp=0.60 / qpmin=0 / qpmax=69 / qpstep=4 / cplxblur=20.0 / qblur=0.5 / vbv_maxrate=50000 / vbv_bufsize=62500 / nal_hrd=none / filler=0 / ip_ratio=1.25 / pb_ratio=1.30 / aq=3:0.70
Язык : English
По умолчанию : Да
Принудительно : Нет
Цветовой диапазон : Limited
Основные цвета : BT.709
Характеристики трансфера : BT.709
Коэффициенты матрицы : BT.709

Аудио #1
Идентификатор : 2
Формат : AC-3
Формат/Информация : Audio Coding 3
Идентификатор кодека : A_AC3
Продолжительность : 1 ч. 43 м.
Вид битрейта : Постоянный
Битрейт : 384 Кбит/сек
Каналы : 6 каналов
Расположение каналов : Front: L C R, Side: L R, LFE
Частота : 48,0 КГц
Частота кадров : 31,250 кадров/сек (1536 SPF)
Битовая глубина : 16 бит
Метод сжатия : С потерями
Размер потока : 285 Мбайт (3%)
Заголовок : MVO | Twister
Язык : Russian
По умолчанию : Да
Принудительно : Нет

Аудио #2
Идентификатор : 3
Формат : AC-3
Формат/Информация : Audio Coding 3
Идентификатор кодека : A_AC3
Продолжительность : 1 ч. 43 м.
Вид битрейта : Постоянный
Битрейт : 448 Кбит/сек
Каналы : 6 каналов
Расположение каналов : Front: L C R, Side: L R, LFE
Частота : 48,0 КГц
Частота кадров : 31,250 кадров/сек (1536 SPF)
Битовая глубина : 16 бит
Метод сжатия : С потерями
Размер потока : 332 Мбайт (3%)
Заголовок : MVO | AuraFilm
Язык : Russian
По умолчанию : Нет
Принудительно : Нет

Аудио #3
Идентификатор : 4
Формат : AC-3
Формат/Информация : Audio Coding 3
Идентификатор кодека : A_AC3
Продолжительность : 1 ч. 43 м.
Вид битрейта : Постоянный
Битрейт : 192 Кбит/сек
Каналы : 2 канала
Расположение каналов : Front: L R
Частота : 48,0 КГц
Частота кадров : 31,250 кадров/сек (1536 SPF)
Битовая глубина : 16 бит
Метод сжатия : С потерями
Размер потока : 142 Мбайт (1%)
Заголовок : MVO | Lazer Video
Язык : Russian
По умолчанию : Нет
Принудительно : Нет

Аудио #4
Идентификатор : 5
Формат : AC-3
Формат/Информация : Audio Coding 3
Идентификатор кодека : A_AC3
Продолжительность : 1 ч. 43 м.
Вид битрейта : Постоянный
Битрейт : 192 Кбит/сек
Каналы : 2 канала
Расположение каналов : Front: L R
Частота : 48,0 КГц
Частота кадров : 31,250 кадров/сек (1536 SPF)
Битовая глубина : 16 бит
Метод сжатия : С потерями
Размер потока : 142 Мбайт (1%)
Заголовок : MVO | СТС
Язык : Russian
По умолчанию : Нет
Принудительно : Нет

Аудио #5
Идентификатор : 6
Формат : AC-3
Формат/Информация : Audio Coding 3
Идентификатор кодека : A_AC3
Продолжительность : 1 ч. 43 м.
Вид битрейта : Постоянный
Битрейт : 192 Кбит/сек
Каналы : 2 канала
Расположение каналов : Front: L R
Частота : 48,0 КГц
Частота кадров : 31,250 кадров/сек (1536 SPF)
Битовая глубина : 16 бит
Метод сжатия : С потерями
Размер потока : 142 Мбайт (1%)
Заголовок : MVO | ЕА
Язык : Russian
По умолчанию : Нет
Принудительно : Нет

Аудио #6
Идентификатор : 7
Формат : AC-3
Формат/Информация : Audio Coding 3
Идентификатор кодека : A_AC3
Продолжительность : 1 ч. 43 м.
Вид битрейта : Постоянный
Битрейт : 192 Кбит/сек
Каналы : 2 канала
Расположение каналов : Front: L R
Частота : 48,0 КГц
Частота кадров : 31,250 кадров/сек (1536 SPF)
Битовая глубина : 16 бит
Метод сжатия : С потерями
Размер потока : 142 Мбайт (1%)
Заголовок : DUB | Хлопушка
Язык : Russian
По умолчанию : Нет
Принудительно : Нет

Аудио #7
Идентификатор : 8
Формат : AC-3
Формат/Информация : Audio Coding 3
Идентификатор кодека : A_AC3
Продолжительность : 1 ч. 43 м.
Вид битрейта : Постоянный
Битрейт : 448 Кбит/сек
Каналы : 6 каналов
Расположение каналов : Front: L C R, Side: L R, LFE
Частота : 48,0 КГц
Частота кадров : 31,250 кадров/сек (1536 SPF)
Битовая глубина : 16 бит
Метод сжатия : С потерями
Размер потока : 332 Мбайт (3%)
Заголовок : AVO | Ю. Живов
Язык : Russian
По умолчанию : Нет
Принудительно : Нет

Аудио #8
Идентификатор : 9
Формат : AC-3
Формат/Информация : Audio Coding 3
Идентификатор кодека : A_AC3
Продолжительность : 1 ч. 43 м.
Вид битрейта : Постоянный
Битрейт : 384 Кбит/сек
Каналы : 6 каналов
Расположение каналов : Front: L C R, Side: L R, LFE
Частота : 48,0 КГц
Частота кадров : 31,250 кадров/сек (1536 SPF)
Битовая глубина : 16 бит
Метод сжатия : С потерями
Размер потока : 285 Мбайт (3%)
Заголовок : AVO | А. Гаврилов
Язык : Russian
По умолчанию : Нет
Принудительно : Нет

Аудио #9
Идентификатор : 10
Формат : AC-3
Формат/Информация : Audio Coding 3
Идентификатор кодека : A_AC3
Продолжительность : 1 ч. 43 м.
Вид битрейта : Постоянный
Битрейт : 448 Кбит/сек
Каналы : 6 каналов
Расположение каналов : Front: L C R, Side: L R, LFE
Частота : 48,0 КГц
Частота кадров : 31,250 кадров/сек (1536 SPF)
Битовая глубина : 16 бит
Метод сжатия : С потерями
Размер потока : 332 Мбайт (3%)
Заголовок : AVO | В. Горчаков
Язык : Russian
По умолчанию : Нет
Принудительно : Нет

Аудио #10
Идентификатор : 11
Формат : AC-3
Формат/Информация : Audio Coding 3
Идентификатор кодека : A_AC3
Продолжительность : 1 ч. 43 м.
Вид битрейта : Постоянный
Битрейт : 448 Кбит/сек
Каналы : 6 каналов
Расположение каналов : Front: L C R, Side: L R, LFE
Частота : 48,0 КГц
Частота кадров : 31,250 кадров/сек (1536 SPF)
Битовая глубина : 16 бит
Метод сжатия : С потерями
Размер потока : 332 Мбайт (3%)
Заголовок : AVO | Е. Гаевский
Язык : Russian
По умолчанию : Нет
Принудительно : Нет

Аудио #11
Идентификатор : 12
Формат : AC-3
Формат/Информация : Audio Coding 3
Идентификатор кодека : A_AC3
Продолжительность : 1 ч. 43 м.
Вид битрейта : Постоянный
Битрейт : 192 Кбит/сек
Каналы : 2 канала
Расположение каналов : Front: L R
Частота : 48,0 КГц
Частота кадров : 31,250 кадров/сек (1536 SPF)
Битовая глубина : 16 бит
Метод сжатия : С потерями
Размер потока : 142 Мбайт (1%)
Заголовок : VO | Неизвестный
Язык : Russian
По умолчанию : Нет
Принудительно : Нет

Аудио #12
Идентификатор : 13
Формат : AC-3
Формат/Информация : Audio Coding 3
Идентификатор кодека : A_AC3
Продолжительность : 1 ч. 43 м.
Вид битрейта : Постоянный
Битрейт : 192 Кбит/сек
Каналы : 2 канала
Расположение каналов : Front: L R
Частота : 48,0 КГц
Частота кадров : 31,250 кадров/сек (1536 SPF)
Битовая глубина : 16 бит
Метод сжатия : С потерями
Размер потока : 142 Мбайт (1%)
Заголовок : VO | Петербуржец
Язык : Russian
По умолчанию : Нет
Принудительно : Нет

Аудио #13
Идентификатор : 14
Формат : AC-3
Формат/Информация : Audio Coding 3
Идентификатор кодека : A_AC3
Продолжительность : 1 ч. 43 м.
Вид битрейта : Постоянный
Битрейт : 448 Кбит/сек
Каналы : 6 каналов
Расположение каналов : Front: L C R, Side: L R, LFE
Частота : 48,0 КГц
Частота кадров : 31,250 кадров/сек (1536 SPF)
Битовая глубина : 16 бит
Метод сжатия : С потерями
Размер потока : 332 Мбайт (3%)
Заголовок : MVO | 1+1
Язык : English
По умолчанию : Нет
Принудительно : Нет

Аудио #14
Идентификатор : 15
Формат : AC-3
Формат/Информация : Audio Coding 3
Идентификатор кодека : A_AC3
Продолжительность : 1 ч. 43 м.
Вид битрейта : Постоянный
Битрейт : 448 Кбит/сек
Каналы : 6 каналов
Расположение каналов : Front: L C R, Side: L R, LFE
Частота : 48,0 КГц
Частота кадров : 31,250 кадров/сек (1536 SPF)
Битовая глубина : 16 бит
Метод сжатия : С потерями
Размер потока : 332 Мбайт (3%)
Заголовок : Original
Язык : English
По умолчанию : Нет
Принудительно : Нет

Аудио #15
Идентификатор : 16
Формат : AC-3
Формат/Информация : Audio Coding 3
Идентификатор кодека : A_AC3
Продолжительность : 1 ч. 43 м.
Вид битрейта : Постоянный
Битрейт : 448 Кбит/сек
Каналы : 6 каналов
Расположение каналов : Front: L C R, Side: L R, LFE
Частота : 48,0 КГц
Частота кадров : 31,250 кадров/сек (1536 SPF)
Битовая глубина : 16 бит
Метод сжатия : С потерями
Размер потока : 332 Мбайт (3%)
Заголовок : DUB
Язык : German
По умолчанию : Нет
Принудительно : Нет

Текст #1
Идентификатор : 17
Формат : UTF-8
Идентификатор кодека : S_TEXT/UTF8
Идентификатор кодека/Информация : UTF-8 Plain Text
Язык : Russian
По умолчанию : Нет
Принудительно : Нет

Текст #2
Идентификатор : 18
Формат : UTF-8
Идентификатор кодека : S_TEXT/UTF8
Идентификатор кодека/Информация : UTF-8 Plain Text
Язык : English
По умолчанию : Нет
Принудительно : Нет

Текст #3
Идентификатор : 19
Формат : UTF-8
Идентификатор кодека : S_TEXT/UTF8
Идентификатор кодека/Информация : UTF-8 Plain Text
Заголовок : SDH
Язык : English
По умолчанию : Нет
Принудительно : Нет

Текст #4
Идентификатор : 20
Формат : UTF-8
Идентификатор кодека : S_TEXT/UTF8
Идентификатор кодека/Информация : UTF-8 Plain Text
Язык : German
По умолчанию : Нет
Принудительно : Нет

Меню
00:00:00.000 : en:Chapter 01
00:07:17.714 : en:Chapter 02
00:11:59.496 : en:Chapter 03
00:15:22.240 : en:Chapter 04
00:20:27.420 : en:Chapter 05
00:24:56.105 : en:Chapter 06
00:28:39.411 : en:Chapter 07
00:32:40.027 : en:Chapter 08
00:37:55.800 : en:Chapter 09
00:42:19.814 : en:Chapter 10
00:47:12.523 : en:Chapter 11
00:52:55.407 : en:Chapter 12
00:54:59.323 : en:Chapter 13
01:01:20.078 : en:Chapter 14
01:04:28.683 : en:Chapter 15
01:08:24.169 : en:Chapter 16
01:12:22.281 : en:Chapter 17
01:16:18.601 : en:Chapter 18
01:20:46.744 : en:Chapter 19
01:25:44.166 : en:Chapter 20
01:29:12.958 : en:Chapter 21
01:31:52.284 : en:Chapter 22
01:35:36.341 : en:Chapter 23
01:38:13.247 : en:Chapter 24
Просьба отключить блокировщики рекламы на странице скриншотов по адресу: http://3.lostpic.net/, этим Вы поможете существованию проекта. Заранее спасибо!
При скачивании раздач данного релизёра, дублоны не снимаются, а за сидирование установлен максимальный коэффициент. Просьба ко всем, поддержать сидированием раздачи Леонида и сохранить о нём память!
КУБКИ

СТАЖ

МЕДАЛИ
Награды:128

Пожизненный VIP+ (1) За активную помощь проекту (5) Лучший по количеству кубков (20) За отличные раздачи и качество (58) За подробное оформление раздач (11) За отличные комментарии (6) Почётный форумчанин (1) Верный Сид (26)

Аватара пользователя
СССР
MZMA
Заслуженный Корсар-Вип+
Раздачи группы KORSAR разрешено перезаливать спустя 7 дней после публикации и с обязательным добавлением банера
  • Торрент
Для скачивания торрента необходимо зарегистрироваться или войти на трекер.

Сообщение MZMA » 22 ноя 2018, 05:28

Благодарности - filbi1976, за помощь при работе над релизом.
КУБКИ

СТАЖ

МЕДАЛИ
Награды:128

Пожизненный VIP+ (1) За активную помощь проекту (5) Лучший по количеству кубков (20) За отличные раздачи и качество (58) За подробное оформление раздач (11) За отличные комментарии (6) Почётный форумчанин (1) Верный Сид (26)

Аватара пользователя
СССР
MZMA
Заслуженный Корсар-Вип+

Сообщение filbi1976 » 22 ноя 2018, 07:50

Лёня, спасибо! :-drinks:
The Show Must Go On
Посмотреть товар в профиле пользователя

Нажмите на изображение, чтобы увидеть в полный размер  
1 шт.
Нажмите на изображение, чтобы увидеть в полный размер  
1 шт.
Нажмите на изображение, чтобы увидеть в полный размер  
1 шт.
Нажмите на изображение, чтобы увидеть в полный размер  
1 шт.
Нажмите на изображение, чтобы увидеть в полный размер  
1 шт.
Нажмите на изображение, чтобы увидеть в полный размер  
1 шт.
Нажмите на изображение, чтобы увидеть в полный размер  
1 шт.
Нажмите на изображение, чтобы увидеть в полный размер  
1 шт.
Нажмите на изображение, чтобы увидеть в полный размер  
1 шт.
Нажмите на изображение, чтобы увидеть в полный размер  
1 шт.
Нажмите на изображение, чтобы увидеть в полный размер  
1 шт.
Нажмите на изображение, чтобы увидеть в полный размер  
1 шт.
Нажмите на изображение, чтобы увидеть в полный размер  
1 шт.
Нажмите на изображение, чтобы увидеть в полный размер  
1 шт.
Нажмите на изображение, чтобы увидеть в полный размер  
1 шт.
КУБКИ

СТАЖ

МЕДАЛИ
Награды:152

За активную помощь проекту (5) За отличные раздачи и качество (100) За подробное оформление раздач (3) За отличные комментарии (7) Почётный форумчанин (2) Верный Сид (31) За участие в конкурсах/играх (2) 3 место в конкурсах/играх (1)

Аватара пользователя
Тортуга
filbi1976
Администратор-Корсар

Сообщение kwazar312 » 22 ноя 2018, 12:52

«Универсальный солдат» (англ. Universal Soldier) — научно-фантастический боевик 1992 года с Жан-Клодом Ван Даммом и Дольфом Лундгреном в главных ролях. Сюжет повествует об американских солдатах, убитых во Вьетнаме, которых оживили в настоящее время и превратили в универсальных солдат — практически неуязвимых и бесстрашных киборгов, идеальных машин для выполнения спецопераций. К двум из них — Люку Деверо и Эндрю Скотту — частично возвращается память, и они выходят из-под контроля.
В 1999 году состоялся выход сиквела — «Универсальный солдат 2: Возвращение», в котором, помимо Ван Дамма, также снялись Майкл Джей Уайт и Билл Голдберг. В 2010 году в прокат вышло альтернативное продолжение — «Универсальный солдат 3: Возрождение» с возвращением Дольфа Лундгрена в роли Эндрю Скотта.
Уважаемый MZMA,большое спасибо за раздачу отличного фильма.
КУБКИ

СТАЖ

МЕДАЛИ
Награды:141

Пожизненный VIP+ (2) За активную помощь проекту (14) Лучший по количеству кубков (43) За отличные раздачи и качество (3) За отличные комментарии (24) Почётный форумчанин (1) Верный Сид (48) За участие в конкурсах/играх (6)

Аватара пользователя
kwazar312
Заслуженный Корсар-Вип+

Сообщение Ethan » 16 дек 2019, 07:36

Да уж, классика, пересматривать можно бесконечно!
СТАЖ

МЕДАЛИ


Аватара пользователя
Ethan
Опытный Корсар

Сообщение poletov » 26 мар 2020, 09:36

Отличный фильм,по-моемому один из лучших фантастических боевиков в моем понимании :10 balov: :good:
КУБКИ

СТАЖ

МЕДАЛИ
Награды:14

За отличные раздачи и качество (1) За отличные комментарии (10) Почётный форумчанин (2) Верный Сид (1)

Аватара пользователя
Russia
poletov
Заслуженный Корсар


Вернуться в Зарубежное кино (1991-2000 / HD Video)



Uptime по данным Ping-Admin.Ru - сервиса мониторинга доступности сайтов
Рейтинг@Mail.ru