logo
Международный русскоязычный
торрент-трекер
Menu

Doublon
Поделиться с друзьями: 
Голосуй за Корсар и получи 150 дублонов
Рейтинг торрент трекеров - UpTracker.ru

Уж лучше умереть / Better Off Dead... (1985, мелодрама, комедия, BDRip 720p)

Сообщение V_ad » 16 апр 2018, 11:07

Название: Уж лучше умереть
Оригинальное название: Better Off Dead
Год выпуска: 1985
Жанр: Мелодрама, комедия
Выпущено: США, A&M Films, CBS Entertainment Production
Режиссер: Сэвидж Стив Холланд
В ролях: Джон Кьюсак, Дэвид Огден Стайерз, Ким Дарби, Дэмиен Слэйд, Скутер Стивенс, Дайан Франклин, Лора Уотербери, Дэн Шнайдер, Юдзи Окумото, Брайан Имада, Чак Митчел, Аманда Уайсс, Кёртис Армстронг, Аарон Дозье, Фрэнк Берт Авалон, Дж. Уоррен Дэвид, Питер Элленштейн, Винсент Скьявелли, Эдвард Мелер, Томас Роллерсон, Тоби Иланд, Джонатан Чарльз Фокс, Даррен Харрис, Рэнди Стоклос, Сэм Хай, Дэвид Вон, Тина Литтлвуд, Стивен Уильямс (I), Стюарт К. Робинсон, Тейлор Негрон
О фильме: От героя картины по имени Лэйн — ушла девушка. Ушла хладнокровно, без сантиментов, заявив на прощание, что ей по вкусу кто-нибудь посимпатичней, побогаче и попопулярней. Сказала…и ушла с капитаном школьной команды лыжников, разбив сердце бедолаге Лэйну, существование которого сразу перестало иметь всякий смысл!



Продолжительность: 01:37:00
Перевод: Профессиональный многоголосый
Субтитры: Русские, английские
Качество: BDRip (720p)
Видео: MPEG-4 AVC, 7860 Кбит/с, 1280x720, 23.976 кадр/с
Аудио #1: Русский (AC3, 2 ch, 192 Кбит/с)
Аудио #2: Английский (AC3, 6 ch, 448 Кбит/с)

Формат : Matroska
Версия формата : Version 2
Размер файла : 5,76 Гбайт
Продолжительность : 1 ч. 37 м.
Общий поток : 8496 Кбит/сек
Название фильма : ~V ad~
Дата кодирования : UTC 2018-04-13 06:09:50
Программа кодирования : mkvmerge v6.5.0 ('Isn't she lovely') built on Oct 20 2013 12:50:05
Библиотека кодирования : libebml v1.3.0 + libmatroska v1.4.1
Обложка : Yes
Attachments : cover.jpg

Видео
Идентификатор : 1
Формат : AVC
Формат/Информация : Advanced Video Codec
Профиль формата : High@L4.1
Настройки формата : CABAC / 9 Ref Frames
Параметр CABAC формата : Да
Параметр RefFrames формата : 9 кадров
Идентификатор кодека : V_MPEG4/ISO/AVC
Продолжительность : 1 ч. 37 м.
Битрейт : 7860 Кбит/сек
Ширина : 1280 пикселей
Высота : 720 пикселей
Соотношение сторон : 16:9
Режим частоты кадров : Постоянный
Частота кадров : 23,976 (24000/1001) кадра/сек
Цветовое пространство : YUV
Субдискретизация насыщенности : 4:2:0
Битовая глубина : 8 бит
Тип развёртки : Прогрессивная
Бит/(Пиксели*Кадры) : 0.356
Размер потока : 5,21 Гбайт (90%)
Заголовок : ~V~
Библиотека кодирования : x264 core 155 r2901 7d0ff22
Настройки программы : cabac=1 / ref=9 / deblock=1:-2:-2 / analyse=0x3:0x133 / me=umh / subme=11 / psy=1 / psy_rd=1.10:0.20 / mixed_ref=1 / me_range=32 / chroma_me=1 / trellis=2 / 8x8dct=1 / cqm=0 / deadzone=21,11 / fast_pskip=0 / chroma_qp_offset=-3 / threads=12 / lookahead_threads=1 / sliced_threads=0 / nr=0 / decimate=0 / interlaced=0 / bluray_compat=0 / constrained_intra=0 / bframes=12 / b_pyramid=2 / b_adapt=2 / b_bias=0 / direct=3 / weightb=1 / open_gop=0 / weightp=2 / keyint=240 / keyint_min=23 / scenecut=40 / intra_refresh=0 / rc=2pass / mbtree=0 / bitrate=7860 / ratetol=1.0 / qcomp=0.65 / qpmin=0 / qpmax=69 / qpstep=4 / cplxblur=20.0 / qblur=0.5 / ip_ratio=1.30 / pb_ratio=1.30 / aq=3:0.90
Язык : Английский
Default : Да
Forced : Нет

Аудио #1
Идентификатор : 2
Формат : AC-3
Формат/Информация : Audio Coding 3
Идентификатор кодека : A_AC3
Продолжительность : 1 ч. 37 м.
Вид битрейта : Постоянный
Битрейт : 192 Кбит/сек
Каналы : 2 канала
Расположение каналов : Front: L R
Частота : 48,0 КГц
Частота кадров : 31,250 кадров/сек (1536 SPF)
Битовая глубина : 16 бит
Метод сжатия : С потерями
Размер потока : 133 Мбайт (2%)
Заголовок : MVO [VHS]
Язык : Русский
Service Kind : Complete Main
Default : Да
Forced : Нет

Аудио #2
Идентификатор : 3
Формат : AC-3
Формат/Информация : Audio Coding 3
Идентификатор кодека : A_AC3
Продолжительность : 1 ч. 37 м.
Вид битрейта : Постоянный
Битрейт : 448 Кбит/сек
Каналы : 6 каналов
Расположение каналов : Front: L C R, Side: L R, LFE
Частота : 48,0 КГц
Частота кадров : 31,250 кадров/сек (1536 SPF)
Битовая глубина : 16 бит
Метод сжатия : С потерями
Размер потока : 311 Мбайт (5%)
Язык : Английский
Service Kind : Complete Main
Default : Нет
Forced : Нет

Текст #1
Идентификатор : 4
Формат : UTF-8
Идентификатор кодека : S_TEXT/UTF8
Идентификатор кодека/Информация : UTF-8 Plain Text
Язык : Русский
Default : Нет
Forced : Нет

Текст #2
Идентификатор : 5
Формат : UTF-8
Идентификатор кодека : S_TEXT/UTF8
Идентификатор кодека/Информация : UTF-8 Plain Text
Язык : Английский
Default : Нет
Forced : Нет

Меню
00:00:00.000 : en:Beating the Paperboy
00:04:47.287 : en:Cereal and Boiled Bacon
00:07:32.326 : en:Howard Cosell Impersonators
00:09:58.973 : en:Ski Team Tryouts
00:14:45.759 : en:Death Attempt By Hanging
00:16:13.806 : en:Green Goo with Raisins
00:18:40.911 : en:Nose Wiping Incident
00:21:31.415 : en:"I Want My Two Dollars!"
00:22:47.991 : en:Chalkboard Fantasy
00:26:52.235 : en:Mr. Kerber Asks to Date Beth
00:28:23.243 : en:Cartoon Fantasy
00:32:17.852 : en:Death Attempt By Jumping
00:33:17.495 : en:White Trash
00:35:36.175 : en:Christmas Miracle
00:39:41.337 : en:Mailman Asks to Date Beth
00:40:34.557 : en:Father/Son Talk
00:43:21.390 : en:High School Dance
00:46:50.557 : en:Meeting Monique
00:49:38.558 : en:Attack of the Paper Boys
00:51:34.841 : en:A Man Alone
00:52:59.467 : en:Everybody Wants Some
00:57:41.708 : en:Barney Rubble Asks to Date Beth
00:58:47.357 : en:"Franch Fries, Franch Dressing, Franch Bread"
01:01:40.154 : en:K12 Challenge
01:07:06.188 : en:Persistent Paperboy
01:09:22.992 : en:Big Faker
01:13:20.813 : en:Lane Wins the Drag Race
01:18:08.350 : en:Romantic Frozen Dinner
01:20:47.300 : en:Sliding Down the Mountain
01:24:02.495 : en:Paperboy on Skis
01:26:53.666 : en:Lane Wins the Ski Race
01:29:03.338 : en:Language Lessons
01:31:21.726 : en:One Look



Сэмпл
Релиз от:
Аватара пользователя
V_ad
Опытный Релизёр-Корсар
 
 

Награды: 19
За помощь проекту (1) За отличные раздачи и качество (9) Верный Сид (5)
  • Торрент
Для скачивания торрента необходимо зарегистрироваться или войти на трекер.

Вернуться в Зарубежное кино (1981-1990 / HD Video)



Uptime по данным Ping-Admin.Ru - сервиса мониторинга доступности сайтов
Рейтинг@Mail.ru