logo
Международный русскоязычный
торрент-трекер
Menu
Doublon
Поделиться с друзьями: 
Голосуй за Корсар и получи 500 дублонов
Рейтинг торрент трекеров - UpTracker.ru

Убийства в стиле Гойи / El asesino de los caprichos / The Goya Murders (2019, триллер, драма, криминал, детектив, BDRemux 1080p) | iTunes

Сообщение kisa1980 » 26 мар 2020, 01:55

Название: Убийства в стиле Гойи
Оригинальное название: El asesino de los caprichos / The Goya Murders
Год выхода: 2019
Жанр: Триллер, драма, криминал, детектив
Режиссер: Херардо Эрреро
В ролях: Марибель Верду, Аура Гарридо, Роберто Аламо, Хинес Гарсия Мильян, Даниэль Грао, Рут Габриэль, Антонио Веласкес, Тамар Новас, Айтор Фернандиньо, Оскар Пастор

О фильме: Две сыщицы берутся за расследование серии убийств в самом богатом районе Мадрида. Погружаясь в детали, они выясняют, что преступник разыгрывает с жертвами страшный спектакль. На месте преступления маньяк воссоздает сюжеты полотен Франсиско Гойи.



Страна: Испания, Бельгия
Студия: Entre Chien et Loup, Los Asesinatos de Goya, Movistar+
Продолжительность: 01:39:43
Перевод: Дублированный | iTunes

Качество: BDRemux 1080p
Видео: MPEG-4 AVC, 1920x1080, 31.4 Mbit/s, 24.000 fps
Аудио 1: 48 kHz, AC3, 5.1, 384 Kbps | iTunes | RUS |
Аудио 2: 48 kHz, DTS-HD MA, 5.1, 1752 Kbps | Оригинал | SPA |
Субтитры: Русские (Full), английские

Релиз от:

General
Unique ID : 87239752809799129273122202616671042935 (0x41A1C3E5F6F85C6A9FFE53F13C90FD77)
Complete name : E:Video111The.Goya.Murders.2019.BDREMUX.1080p.seleZen.mkv
Format : Matroska
Format version : Version 4
File size : 23.3 GiB
Duration : 1 h 39 min
Overall bit rate mode : Variable
Overall bit rate : 33.5 Mb/s
Movie name : The Goya Murders 2019 from селезень
Encoded date : UTC 2020-03-25 22:44:07
Writing application : mkvmerge v40.0.0 ('Old Town Road + Pony') 64-bit
Writing library : libebml v1.3.9 + libmatroska v1.5.2

Video
ID : 1
Format : AVC
Format/Info : Advanced Video Codec
Format profile : High@L4.1
Format settings : CABAC / 4 Ref Frames
Format settings, CABAC : Yes
Format settings, Reference : 4 frames
Codec ID : V_MPEG4/ISO/AVC
Duration : 1 h 39 min
Bit rate mode : Variable
Bit rate : 31.4 Mb/s
Maximum bit rate : 35.0 Mb/s
Width : 1 920 pixels
Height : 1 080 pixels
Display aspect ratio : 16:9
Frame rate mode : Constant
Frame rate : 24.000 FPS
Color space : YUV
Chroma subsampling : 4:2:0
Bit depth : 8 bits
Scan type : Progressive
Bits/(Pixel*Frame) : 0.630
Stream size : 21.8 GiB (94%)
Language : Spanish
Default : Yes
Forced : No
Color range : Limited
Color primaries : BT.709
Transfer characteristics : BT.709
Matrix coefficients : BT.709

Audio #1
ID : 2
Format : AC-3
Format/Info : Audio Coding 3
Commercial name : Dolby Digital
Codec ID : A_AC3
Duration : 1 h 39 min
Bit rate mode : Constant
Bit rate : 384 kb/s
Channel(s) : 6 channels
Channel layout : L R C LFE Ls Rs
Sampling rate : 48.0 kHz
Frame rate : 31.250 FPS (1536 SPF)
Compression mode : Lossy
Stream size : 274 MiB (1%)
Title : iTunes
Language : Russian
Service kind : Complete Main
Default : Yes
Forced : Yes

Audio #2
ID : 3
Format : DTS XLL
Format/Info : Digital Theater Systems
Commercial name : DTS-HD Master Audio
Codec ID : A_DTS
Duration : 1 h 39 min
Bit rate mode : Variable
Bit rate : 1 752 kb/s
Channel(s) : 6 channels
Channel layout : C L R Ls Rs LFE
Sampling rate : 48.0 kHz
Frame rate : 93.750 FPS (512 SPF)
Bit depth : 16 bits
Compression mode : Lossless
Stream size : 1.22 GiB (5%)
Title : Original
Language : Spanish
Default : No
Forced : No

Text #1
ID : 4
Format : UTF-8
Codec ID : S_TEXT/UTF8
Codec ID/Info : UTF-8 Plain Text
Duration : 1 h 35 min
Bit rate : 81 b/s
Count of elements : 1241
Stream size : 57.5 KiB (0%)
Title : Full
Language : Russian
Default : No
Forced : No

Text #2
ID : 5
Format : UTF-8
Codec ID : S_TEXT/UTF8
Codec ID/Info : UTF-8 Plain Text
Duration : 1 h 32 min
Bit rate : 49 b/s
Count of elements : 962
Stream size : 33.7 KiB (0%)
Language : English
Default : No
Forced : No

Menu
00:00:00.000 : :Chapter 1
00:13:24.708 : :Chapter 2
00:22:49.083 : :Chapter 3
00:31:35.875 : :Chapter 4
00:38:36.542 : :Chapter 5
00:45:28.292 : :Chapter 6
00:53:07.833 : :Chapter 7
01:01:39.167 : :Chapter 8
01:09:10.542 : :Chapter 9
01:16:39.958 : :Chapter 10
01:23:44.417 : :Chapter 11
01:32:36.542 : :Chapter 12
КУБКИ

СТАЖ

МЕДАЛИ
Награды:108

За активную помощь проекту (12) Лучший по количеству кубков (3) За отличные раздачи и качество (41) За подробное оформление раздач (8) За отличные комментарии (10) Почётный форумчанин (3) Верный Сид (28) За участие в конкурсах/играх (2)

Аватара пользователя
Тортуга
kisa1980
Главный помощник Администратора-Корсар
  • Торрент
Для скачивания торрента необходимо зарегистрироваться или войти на трекер.

Вернуться в Зарубежное кино (2011-2020 / HD Video)



Uptime по данным Ping-Admin.Ru - сервиса мониторинга доступности сайтов
Рейтинг@Mail.ru