logo
Международный русскоязычный
торрент-трекер
Menu

Doublon
Поделиться с друзьями: 
Голосуй за Корсар и получи 120 дублонов
Рейтинг торрент трекеров - UpTracker.ru

Твой Крест (2007, Мультфильм, DVDRip-AVC) - KORSAR

Сообщение Sanechek » 13 фев 2018, 14:54

Название: Твой Крест
Год выхода: 2007
Жанр: Мультфильм
Режиссер: Станислав Подивилов
В ролях: Станислав Подивилов, Рудольф Панков, Кирилл Немирович-Данченко, А. Подивилова, С. Быстрицкий, А. Плуцкер-Сарно

Описание: Фильм имеет своей целью обратить внимание человека на свой духовный мир. Открыть для себя его богатство. Попытаться осознать свое уникальное место в этом мире, попробовать понять и принять свое предназначение. Главная идея - покорность Божьей воле, необходимость прожить свою земную жизнь достойно, без ропота, не ища себе другой судьбы. Ведь чужой крест может быть и потяжелее собственного...

Выпущено: Россия, Кинокомпания «Рассвет»
Продолжительность: 00:13:00
Перевод: не требуется

Кодек: х264
Качество: DVDRip-AVC
Видео: MPEG-4 AVC, 720x576@768х576, 25 fps, 3512 Кбит/с
Звук: AC3, 2 ch, 192 Кбит/с

Общее
Уникальный идентификатор : 172098318866457121555393416935515630078 (0x8178EE39BA6647FD8185D06D2A7429FE)
Полное имя : D:\Ф А Й Л Ы\Твой Крест (2007) DVDRip-AVC. KORSAR.mkv
Формат : Matroska
Версия формата : Version 2
Размер файла : 351 Мбайт
Продолжительность : 13 м. 0 с.
Общий поток : 3779 Кбит/сек
Дата кодирования : UTC 2017-10-30 08:16:01
Программа кодирования : mkvmerge v7.8.0 ('River Man') 32bit built on Apr 3 2015 12:11:22
Библиотека кодирования : libebml v1.3.1 + libmatroska v1.4.2

Видео
Идентификатор : 1
Формат : AVC
Формат/Информация : Advanced Video Codec
Профиль формата : High@L4.1
Параметр CABAC формата : Да
Параметр ReFrames формата : 15 кадров
Идентификатор кодека : V_MPEG4/ISO/AVC
Продолжительность : 13 м. 0 с.
Битрейт : 3512 Кбит/сек
Ширина : 720 пикселей
Высота : 576 пикселей
Соотношение сторон : 4:3
Режим частоты кадров : Постоянный
Частота кадров : 25,000 кадров/сек
Стандарт вещания : PAL
Цветовое пространство : YUV
Субдискретизация насыщенности : 4:2:0
Битовая глубина : 8 бит
Тип развёртки : Прогрессивная
Бит/(Пиксели*Кадры) : 0.339
Размер потока : 327 Мбайт (93%)
Библиотека кодирования : x264 core 148 r2744kMod b97ae06
Настройки программы : cabac=1 / ref=15 / deblock=1:-2:-2 / analyse=0x3:0x133 / me=umh / subme=10 / psy=1 / fade_compensate=0.00 / psy_rd=1.05:0.10 / mixed_ref=1 / me_range=32 / chroma_me=1 / trellis=2 / 8x8dct=1 / cqm=0 / deadzone=21,11 / fast_pskip=0 / chroma_qp_offset=-3 / threads=6 / lookahead_threads=1 / sliced_threads=0 / nr=0 / decimate=0 / interlaced=0 / bluray_compat=0 / constrained_intra=0 / bframes=9 / b_pyramid=2 / b_adapt=2 / b_bias=0 / direct=1 / weightb=1 / open_gop=0 / weightp=2 / keyint=250 / keyint_min=25 / scenecut=40 / intra_refresh=0 / rc=crf / mbtree=0 / crf=17.7000 / qcomp=0.63 / qpmin=0 / qpmax=39 / qpstep=4 / ip_ratio=1.25 / pb_ratio=1.30 / aq=1:1.00
Язык : Russian
Default : Да
Forced : Нет
Цветовой диапазон : Limited
Основные цвета : BT.601 PAL
Характеристики трансфера : BT.470 System B, BT.470 System G
Коэффициенты матрицы : BT.601

Аудио
Идентификатор : 2
Формат : AC-3
Формат/Информация : Audio Coding 3
Параметр Endianness формата : Big
Идентификатор кодека : A_AC3
Продолжительность : 13 м. 0 с.
Вид битрейта : Постоянный
Битрейт : 192 Кбит/сек
Каналы : 2 канала
Расположение каналов : Front: L R
Частота : 48,0 КГц
Частота кадров : 31,250 кадров/сек (1536 spf)
Битовая глубина : 16 бит
Метод сжатия : С потерями
Размер потока : 17,9 Мбайт (5%)
Язык : Russian
ServiceKind/String : Complete Main
Default : Да
Forced : Нет
Аватара пользователя
Sanechek
Главный Модератор-Корсар
 
 

Награды: 11
За помощь проекту (1) За отличные раздачи и качество (5) За подробное оформление раздач (1) Верный Сид (3)
  • Торрент
Для скачивания торрента необходимо зарегистрироваться или войти на трекер.

Сообщение filbi1976 » 13 фев 2018, 15:12

Саша, спасибо! :-drinks:
Аватара пользователя
filbi1976
Администратор-Корсар
 
 

Награды: 28
За отличные раздачи и качество (21) Верный Сид (5) За участие в конкурсах (1)

Сообщение Korsar » 13 фев 2018, 15:37

Саня спасибо. :-good:

Боцман
Аватара пользователя
Korsar
Помощник Администратора-Корсар
 
 

Награды: 21
За помощь проекту (1) За отличные раздачи и качество (10) Верный Сид (7) За участие в конкурсах (2)

Сообщение hodigor » 13 фев 2018, 16:10

Здравствуйте, уважаемый Sanechek. Благодарю искренне Вас, от всей души за потрясающий мною очень любимый мультфильм. Истинный мультфильм, со смыслом! Смотреть всем! Жаль, мало таких мультфильмов. Уважаемый Sanechek, у меня огромная просьба к Вам! Если Вас не затруднит, пожалуйста, постарайтесь отреставрировать ещё замечательный старый советский сатирический мультфильм «Зеленый Змий» 1962 года. Этот прекрасный мультфильм повествует о нечистой силе, занимающейся спаиванием людей. В глухом лесу живут-поживают Баба Яга и Черт. С помощью Зеленого Змия, они варят самогон из свеклы и продают его людям. Их увозят в милицейской машине, но оставшийся Зеленый Змий выбирает себе новую жертву. Уважаемый Sanechek, я прошу Вас от всей души, помогите пожалуйста! Я буду Вам очень признателен. Искренне желаю добра и процветания Вам! С уважением hodigor.
Аватара пользователя
hodigor
Опытный Корсар
 
 

Награды: 3
За отличные комментарии (3)

Сообщение Sanechek » 13 фев 2018, 16:20

hodigor писал(а):Если Вас не затруднит, пожалуйста, постарайтесь отреставрировать ещё замечательный старый советский сатирический мультфильм «Зеленый Змий» 1962 года.

Исходника нет, если найдёте сделаю.
Аватара пользователя
Sanechek
Главный Модератор-Корсар
 
 

Награды: 11
За помощь проекту (1) За отличные раздачи и качество (5) За подробное оформление раздач (1) Верный Сид (3)

Сообщение hodigor » 13 фев 2018, 16:47

Sanechek писал(а):
hodigor писал(а):Если Вас не затруднит, пожалуйста, постарайтесь отреставрировать ещё замечательный старый советский сатирический мультфильм «Зеленый Змий» 1962 года.

Исходника нет, если найдёте сделаю.

Уважаемый Sanechek, что Вы имеете в виду? Пожалуйста, напишите мне поподробнее. Что я должен сделать для этого. У меня скачан этот мультфильм с сайта Кинозал. тв.
Аватара пользователя
hodigor
Опытный Корсар
 
 

Награды: 3
За отличные комментарии (3)

Сообщение filbi1976 » 13 фев 2018, 17:53

hodigor писал(а):Уважаемый Sanechek, что Вы имеете в виду? Пожалуйста, напишите мне поподробнее. Что я должен сделать для этого.

Нужен исходник из которого делать рип, к примеру DVD-диск, WEB-DL или DVB, а их нет, только готовые рипы и из них уже ничего не сделаешь.
Аватара пользователя
filbi1976
Администратор-Корсар
 
 

Награды: 28
За отличные раздачи и качество (21) Верный Сид (5) За участие в конкурсах (1)

Сообщение hodigor » 13 фев 2018, 18:44

filbi1976 писал(а):
hodigor писал(а):Уважаемый Sanechek, что Вы имеете в виду? Пожалуйста, напишите мне поподробнее. Что я должен сделать для этого.

Нужен исходник из которого делать рип, к примеру DVD-диск, WEB-DL или DVB, а их нет, только готовые рипы и из них уже ничего не сделаешь.

Уважаемый filbi1976, благодарю Вас за ответ, теперь мне стало всё понятно. Жаль конечно, я буду ждать, надеяться. Мне очень хотелось иметь в своей домашней коллекции этот замечательный советский мультфильм «Зеленый Змий» в отреставрированном виде. Владимир Полковников в 1962 году снял этот остросатирический мультфильм «Зелёный змий» о вреде алкоголизма и борьбе с самогоноварением. А я желаю всем добра и мыслей светлых. Истинного счастья на Земле. Будьте счастливы. С уважением, hodigor.
Аватара пользователя
hodigor
Опытный Корсар
 
 

Награды: 3
За отличные комментарии (3)

Сообщение Булкин Семён » 14 фев 2018, 22:07

Большое спасибо! :hi:
Аватара пользователя
Булкин Семён
Опытный Корсар
 
 



Вернуться в Отечественные



cron
Uptime по данным Ping-Admin.Ru - сервиса мониторинга доступности сайтов
Рейтинг@Mail.ru