logo
Международный русскоязычный
торрент-трекер

Труффальдино из Бергамо (1976, Комедия, мелодрама, музыкальный, HDTVRip-AVC)

Сообщение filbi1976 » 10 янв 2017, 19:10

Оригинальное название: Труффальдино из Бергамо
Год выпуска: 1976
Жанр: Комедия, мелодрама, музыкальный, приключения, экранизация
Выпущено: СССР, Ленфильм
Режиссер: Владимир Воробьёв
В ролях: Константин Райкин, Наталья Гундарева, Валентина Кособуцкая, Виктор Костецкий, Лев Петропавловский, Елена Дриацкая, Виктор Кривонос, Игорь Соркин, Александр Березняк, Евгений Тиличеев

О фильме: Действие происходит в Венеции XVIII века. Плут Труффальдино, сбежавший в богатую Венецию из бедного Бергамо, нанимается слугой к одному синьору по имени Федерико Распони, который на самом деле является его переодетой сестрой — Беатриче. Беатриче Распони под именем своего покойного брата пытается разыскать своего возлюбленного Флориндо Аретузи. Под этим именем она заявляется в дом венецианского купца Панталоне, где все уверены в том, что Распони умер. Именно это и объясняют бедняге Труффальдино, который по традиции первым поднялся в дом, чтобы объявить о визите хозяина. После визита, пока хозяин был занят делами, голодный Труффальдино услужил ещё одному господину и нанялся также и к нему... Однако, вслед за этим он встречает первого «умершего» хозяина, поселившегося в этой же гостинице, и продолжает исполнять свои обязанности, не бросая второго хозяина, чтобы получать вдвое большую плату.

Качество: HDTVRip-AVC
Видео: MPEG-4 AVC, 5000 Кбит/с, 864x648,
Аудио: AC3, 2 ch, 192 Кбит/с
Продолжительность: 2 х ~ 01:05:00
Язык: Русский


  • x264 [info]: frame I:486 Avg QP:18.68 size:107588
  • x264 [info]: frame P:26255 Avg QP:20.58 size: 51324
  • x264 [info]: frame B:71469 Avg QP:22.12 size: 14764
========================================================================
Общее
Уникальный идентификатор : 206218317060723873891754293692089064659 (0x9B24340450980D339C8C3702F0F55CD3)
Полное имя : R:\МОИ РИПЫ\Труффальдино из Бергамо_1976-HDTVRip-AVC\Труффальдино-1.mkv
Формат : Matroska
Версия формата : Version 2
Размер файла : 2,38 Гбайт
Продолжительность : 1 ч. 5 м.
Общий поток : 5192 Кбит/сек
Дата кодирования : UTC 2017-01-10 17:45:24
Программа кодирования : mkvmerge v5.8.0 ('No Sleep / Pillow') built on Sep 2 2012 15:37:04
Библиотека кодирования : libebml v1.2.3 + libmatroska v1.3.0

Видео
Идентификатор : 1
Формат : AVC
Формат/Информация : Advanced Video Codec
Профиль формата : High@L4.1
Параметр CABAC формата : Да
Параметр ReFrames формата : 14 кадров
Идентификатор кодека : V_MPEG4/ISO/AVC
Продолжительность : 1 ч. 5 м.
Битрейт : 5000 Кбит/сек
Ширина : 864 пикселя
Высота : 648 пикселей
Соотношение сторон : 4:3
Режим частоты кадров : Постоянный
Частота кадров : 25,000 кадров/сек
Цветовое пространство : YUV
Субдискретизация насыщенности : 4:2:0
Битовая глубина : 8 бит
Тип развёртки : Прогрессивная
Бит/(Пиксели*Кадры) : 0.357
Размер потока : 2,24 Гбайт (94%)
Заголовок : korsar.tv
Библиотека кодирования : x264 core 148 r2744kMod b97ae06
Настройки программы : cabac=1 / ref=14 / deblock=1:-2:-2 / analyse=0x3:0x113 / me=umh / subme=10 / psy=1 / fade_compensate=0.00 / psy_rd=1.05:0.10 / mixed_ref=1 / me_range=32 / chroma_me=1 / trellis=2 / 8x8dct=1 / cqm=0 / deadzone=21,11 / fast_pskip=0 / chroma_qp_offset=-3 / threads=12 / lookahead_threads=3 / sliced_threads=0 / nr=0 / decimate=0 / interlaced=0 / bluray_compat=0 / constrained_intra=0 / bframes=10 / b_pyramid=2 / b_adapt=2 / b_bias=0 / direct=3 / weightb=1 / open_gop=0 / weightp=2 / keyint=250 / keyint_min=25 / scenecut=40 / intra_refresh=0 / rc=2pass / mbtree=0 / bitrate=5000 / ratetol=1.0 / qcomp=0.63 / qpmin=0 / qpmax=39 / qpstep=4 / cplxblur=20.0 / qblur=0.5 / ip_ratio=1.20 / pb_ratio=1.30 / aq=2:0.80
Язык : English
Default : Да
Forced : Нет
Цветовой диапазон : Limited
Основные цвета : BT.709
Характеристики трансфера : BT.709
Коэффициенты матрицы : BT.709

Аудио
Идентификатор : 2
Формат : AC-3
Формат/Информация : Audio Coding 3
Расширение режима : CM (complete main)
Параметр Endianness формата : Big
Идентификатор кодека : A_AC3
Продолжительность : 1 ч. 5 м.
Вид битрейта : Постоянный
Битрейт : 192 Кбит/сек
Каналы : 2 канала
Расположение каналов : Front: L R
Частота : 48,0 КГц
Частота кадров : 31,250 кадров/сек (1536 spf)
Битовая глубина : 16 бит
Метод сжатия : С потерями
Размер потока : 89,9 Мбайт (4%)
Язык : Russian
Default : Да
Forced : Нет

Аватара пользователя
filbi1976
Главный-Корсар
 
Месяцев на трекере: 5Месяцев на трекере: 5Месяцев на трекере: 5Месяцев на трекере: 5Месяцев на трекере: 5
 
Раздал: 48.17 ТБ
Зарегистрирован: 03 авг 2016, 12:59
Откуда: СССР

  • Торрент
Автор: filbi1976 Хэш: ---
Добавлен: 16 янв 2017, 08:26 Приватный: Нет (DHT включён)
Статус: Проверен
Размер: 4.68 ГБ (5 021 277 948 байт)
Изменил:
---
Скачали: 686 (Раздающих: 39%)
Причина:
---
Здоровье: 100%
Сидеров: 268 Личеров: 53
Скорость раздачи: 811.79 КБ/сек Скорость скачивания: 0 байт/сек
Последний сидер: 3 минуты 40 секунд назад Последний личер: 6 минут 35 секунд назад
Для скачивания торрента необходимо зарегистрироваться или войти на трекер.

Сообщение verybigpapa » 10 янв 2017, 19:45

Уважаемый filbi1976, большое спасибо. :hi:
Улыбайтесь, господа! Улыбайтесь!
Аватара пользователя
verybigpapa
Корсар-Вип
 
Месяцев на трекере: 5Месяцев на трекере: 5Месяцев на трекере: 5Месяцев на трекере: 5Месяцев на трекере: 5
 
Раздал: 167.38 ГБ
Зарегистрирован: 03 авг 2016, 16:00
Откуда: СССР

Награды: 1
За помощь проекту (1)

Сообщение bagrad » 11 янв 2017, 01:13

Здорово Сергей, большое спасибо!!! :hi: Фильм на все времена, часто пересматриваю его и всегда после просмотра отличное настроение! :dance:
Dum spíro, spéro!
Аватара пользователя
bagrad
Корсар-Вип
 
Месяцев на трекере: 5Месяцев на трекере: 5Месяцев на трекере: 5Месяцев на трекере: 5Месяцев на трекере: 5
 
Раздал: 393.52 ГБ
Зарегистрирован: 06 авг 2016, 09:35
Откуда: СССР

Награды: 1
За помощь проекту (1)


Вернуться в Кино времён СССР