Korsar.tv - Скачать торрент - Трон в крови / Замок Паутины / Kumonosu jо / Throne of Blood (1957, Боевик, триллер, фэнтези, драма, военный, BDRemux 1080p)
logo
Международный русскоязычный
торрент-трекер
Menu

Doublon
Поделиться с друзьями: 
Голосуй за Корсар и получи 150 дублонов
Рейтинг торрент трекеров - UpTracker.ru

Трон в крови / Замок Паутины / Kumonosu jо / Throne of Blood (1957, Боевик, триллер, фэнтези, драма, военный, BDRemux 1080p)

Сообщение spam » 08 июн 2018, 17:58

Название: Трон в крови / Замок Паутины
Оригинальное название: Kumonosu jо / Throne of Blood
Год выхода: 1957
Жанр: Боевик, триллер, фэнтези, драма, военный
Режиссер: Акира Куросава
В ролях: Тосиро Мифунэ, Такаши Шимура, Акира Кубо, Минору Чиаки, Эйко Мийоши, Такаси Симура, Такамару Сасаки, Хироши Татикава, Китидзиро Уэда, Эйко Миёси, Тиэко Нанива, Ю Фудзики, Сатио Сакаи, Шин Отомо, Сенкичи Омура, Ёсио Инаба, Такэси Като, Сэйдзи Миягути, Исао Кимура

О фильме: Перемещение шекспировского Макбета в средневековую Японию. После грандиозной победы на поле брани, заблудившись в дремучем лесу, лорды Васидзу и Мики наталкиваются на загадочную вещую старуху, которая предсказывает великое будущее Васидзу, и еще более великое — потомкам Мики. Выбравшись из леса, они действительно получают вызов и почетные назначения от императора. Васидзу, подстрекаемый амбициозной женой, и задумывает пойти дальше предсказаний старой колдуньи, но судьба есть судьба…



Страна: Япония
Студия: Toho Company, Kurosawa Production Co
Продолжительность: 01:49:42
Перевод: Профессиональный многоголосый, авторский

Кодек: MPEG-4 AVC
Качество: BDRemux 1080p
Видео: 35046 Кбит/с, 1920x1080, 23.976 кадр/с
Аудио 1: Русский AC3 / 2.0 / 48 kHz / 192 kbps - Профессиональный многоголосый
Аудио 2: Русский DTS-HD MA 1.0 / 48 kHz / 813 kbps - Авторский (Сербин)
Аудио 3: Японский LPCM / 1.0 / 48 kHz / 1152.00 kbps - Оригинал
Аудио 4: Английский AC3 / 1.0 / 48 kHz / 192 kbps - Комментарии
Субтитры: Русские, английские

Общее
Уникальный идентификатор : 195218026894490330625206225915020204431 (0x92DD9FD69549F14F9D8AA41407A6598F)
Полное имя : D:\РЕМУКС!!!!!\Трон в крови.BDRemux.mkv
Формат : Matroska
Версия формата : Version 4 / Version 2
Размер файла : 28,6 Гбайт
Продолжительность : 1 ч. 49 м.
Режим общего битрейта : Переменный
Общий поток : 37,3 Мбит/сек
Название фильма : Трон в крови.BDRemux.thx:SPOMOPS
Дата кодирования : UTC 2018-06-07 14:24:17
Программа кодирования : mkvmerge v8.3.0 ('Over the Horizon') 64bit
Библиотека кодирования : libebml v1.3.1 + libmatroska v1.4.2

Видео
Идентификатор : 1
Формат : AVC
Формат/Информация : Advanced Video Codec
Профиль формата : High@L4.1
Настройки формата : CABAC / 4 Ref Frames
Параметр CABAC формата : Да
Параметр RefFrames формата : 4 кадра
Идентификатор кодека : V_MPEG4/ISO/AVC
Продолжительность : 1 ч. 49 м.
Вид битрейта : Переменный
Битрейт : 34,9 Мбит/сек
Максимальный битрейт : 37,0 Мбит/сек
Ширина : 1920 пикселей
Высота : 1080 пикселей
Соотношение сторон : 16:9
Режим частоты кадров : Постоянный
Частота кадров : 23,976 (24000/1001) кадра/сек
Цветовое пространство : YUV
Субдискретизация насыщенности : 4:2:0
Битовая глубина : 8 бит
Тип развёртки : Прогрессивная
Бит/(Пиксели*Кадры) : 0.703
Размер потока : 26,8 Гбайт (94%)
Default : Да
Forced : Нет

Аудио #1
Идентификатор : 2
Формат : AC-3
Формат/Информация : Audio Coding 3
Идентификатор кодека : A_AC3
Продолжительность : 1 ч. 49 м.
Вид битрейта : Постоянный
Битрейт : 192 Кбит/сек
Каналы : 2 канала
Расположение каналов : Front: L R
Частота : 48,0 КГц
Частота кадров : 31,250 кадров/сек (1536 SPF)
Битовая глубина : 16 бит
Метод сжатия : С потерями
Размер потока : 151 Мбайт (1%)
Заголовок : Русский ас3 - ПМ
Язык : Russian
ServiceKind/String : Complete Main
Default : Да
Forced : Нет

Аудио #2
Идентификатор : 3
Формат : DTS
Формат/Информация : Digital Theater Systems
Профиль формата : MA / Core
Идентификатор кодека : A_DTS
Продолжительность : 1 ч. 49 м.
Вид битрейта : Переменный / Постоянный
Битрейт : 813 Кбит/сек / 384 Кбит/сек
Каналы : 1 канал
Расположение каналов : Front: C
Частота : 48,0 КГц
Частота кадров : 93,750 кадра/сек (512 SPF)
Битовая глубина : 24 бит
Метод сжатия : Без потерь / Lossy
Размер потока : 639 Мбайт (2%)
Заголовок : Русский DTS-HD MA - АП (Сербин)
Язык : Russian
Default : Нет
Forced : Нет

Аудио #3
Идентификатор : 4
Формат : PCM
Настройки формата : Little / Signed
Идентификатор кодека : A_PCM/INT/LIT
Продолжительность : 1 ч. 49 м.
Вид битрейта : Постоянный
Битрейт : 1152 Кбит/сек
Частота : 48,0 КГц
Частота кадров : 32,000 кадра/сек (1500 SPF)
Битовая глубина : 24 бит
Размер потока : 906 Мбайт (3%)
Заголовок : Японский LPCM - Оригинал
Язык : Japanese
Default : Нет
Forced : Нет

Аудио #4
Идентификатор : 5
Формат : AC-3
Формат/Информация : Audio Coding 3
Идентификатор кодека : A_AC3
Продолжительность : 1 ч. 49 м.
Вид битрейта : Постоянный
Битрейт : 192 Кбит/сек
Каналы : 1 канал
Расположение каналов : Front: C
Частота : 48,0 КГц
Частота кадров : 31,250 кадров/сек (1536 SPF)
Битовая глубина : 16 бит
Метод сжатия : С потерями
Размер потока : 151 Мбайт (1%)
Заголовок : Английский - Комментарии
Язык : English
ServiceKind/String : Complete Main
Default : Нет
Forced : Нет

Текст #1
Идентификатор : 6
Формат : UTF-8
Идентификатор кодека : S_TEXT/UTF8
Идентификатор кодека/Информация : UTF-8 Plain Text
Продолжительность : 1 ч. 49 м.
Битрейт : 40 бит/сек
ElementCount : 497
Размер потока : 32,8 Кбайт (0%)
Заголовок : Русские
Язык : Russian
Default : Нет
Forced : Нет

Текст #2
Идентификатор : 7
Формат : UTF-8
Идентификатор кодека : S_TEXT/UTF8
Идентификатор кодека/Информация : UTF-8 Plain Text
Продолжительность : 1 ч. 49 м.
Битрейт : 28 бит/сек
ElementCount : 733
Размер потока : 22,5 Кбайт (0%)
Заголовок : Английские
Язык : English
Default : Нет
Forced : Нет

Текст #3
Идентификатор : 8
Формат : UTF-8
Идентификатор кодека : S_TEXT/UTF8
Идентификатор кодека/Информация : UTF-8 Plain Text
Продолжительность : 1 ч. 49 м.
Битрейт : 22 бит/сек
ElementCount : 568
Размер потока : 18,1 Кбайт (0%)
Заголовок : Английские
Язык : English
Default : Нет
Forced : Нет

Меню
00:00:00.000 : :1
00:05:21.863 : :2
00:09:31.529 : :3
00:12:31.792 : :4
00:20:07.789 : :5
00:24:58.371 : :6
00:27:06.207 : :7
00:31:59.334 : :8
00:36:44.202 : :9
00:39:30.993 : :10
00:48:50.052 : :11
00:49:58.537 : :12
00:55:55.643 : :13
01:03:09.368 : :14
01:05:53.991 : :15
01:08:34.944 : :16
01:18:09.267 : :17
01:23:31.798 : :18
01:28:52.910 : :19
01:35:11.247 : :20
01:38:11.510 : :21
01:41:22.910 : :22
01:48:18.617 : :23
01:49:53.587 : :24




Аватара пользователя
spam
Уважаемый Релизёр-Корсар
 
 

Награды: 24
Лучший по количеству кубков (3) За отличные раздачи и качество (16) За подробное оформление раздач (3)
  • Торрент
Для скачивания торрента необходимо зарегистрироваться или войти на трекер.

Вернуться в Классика зарубежного кино (фильмы до 1980 года)



Uptime по данным Ping-Admin.Ru - сервиса мониторинга доступности сайтов
Рейтинг@Mail.ru