logo
Международный русскоязычный
торрент-трекер
Menu
Поделиться с друзьями: 
Голосуй за Корсар и получи 500 дублонов
Рейтинг торрент трекеров - UpTracker.ru

Триггер / Серии: 01-16 из 16 (2020, драма, WEB-DL 1080p)

Сообщение kisa1980 » 08 фев 2020, 01:32

Название: Триггер
Год выпуска: 2020
Жанр: Драма
Режиссёр: Дмитрий Тюрин
В ролях: Максим Матвеев, Игорь Костолевский, Светлана Иванова, Виктория Маслова, Роман Маякин, Владислав Тирон, Ангелина Стречина, Марк Юсеф, Данила Дунаев, Ян Цапник, Даниил Воробьёв, Янина Малинчик, Олег Масленников-Войтов, Дарья Буткеева, Маруся Пестунова, Екатерина Соломатина, Хельга Филиппова, Екатерина Соколова-Жубер, Лиза Климова, Мария Ахметзянова, Антон Денисенко, Антонина Паперная, Сергей Гурьев, Максим Костромыкин, Екатерина Копанова, Олег Каменщиков

Описание: Психолог Артём Стрелецкий — сторонник «шоковой терапии» в лечении больных. Он считает, что единственный способ для человека решить свои проблемы — это понять себя и перестать себе врать. Если большинство психологов «нянчатся» с клиентами, по полгода выслушивают жалобы на жизнь, сочувствуют — и получают при этом немалые деньги за цикл сеансов, — то Артем постоянно провоцирует клиентов: оскорбляет их, смеется над ними, намеренно выталкивает из зоны психологического комфорта. Практика Артема процветает, пока однажды один из его пациентов не кончает жизнь самоубийством.



Производство: Россия, Продюсерская компания «Среда»
Продолжительность: 16х ~ 00:50:00
Перевод: Не требуется

Качество: WEB-DL 1080p
Формат: MKV
Видео: MPEG4 AVC Video, 1920x1080, 25 fps, ~5000 kbps
Аудио: AC3 Dolby Digital, 48.0 kHz, 2/0 (L,R) ch, 256 kbps
Субтитры: Нет

Релиз от:


General
Unique ID : 202820126321292805377581063333652916791 (0x9895BC4726516F2BAA0F9B2A95C6EA37)
Complete name : D:\Trigger.2020.WEB-DL.(1080p).ExKinoRay\Trigger.S01.E01.2020.WEB-DL.(1080p).ExKinoRay.mkv
Format : Matroska
Format version : Version 4 / Version 2
File size : 1.91 GiB
Duration : 50 min 50 s
Overall bit rate : 5 377 kb/s
Encoded date : UTC 2020-02-07 17:40:43
Writing application : mkvmerge v6.9.1 ('Blue Panther') 64bit built on Apr 18 2014 18:23:38
Writing library : libebml v1.3.0 + libmatroska v1.4.1

Video
ID : 1
Format : AVC
Format/Info : Advanced Video Codec
Format profile : High@L4
Format settings : CABAC / 4 Ref Frames
Format settings, CABAC : Yes
Format settings, ReFrames : 4 frames
Codec ID : V_MPEG4/ISO/AVC
Duration : 50 min 50 s
Bit rate : 5 014 kb/s
Width : 1 920 pixels
Height : 1 080 pixels
Display aspect ratio : 16:9
Frame rate mode : Constant
Frame rate : 25.000 FPS
Color space : YUV
Chroma subsampling : 4:2:0
Bit depth : 8 bits
Scan type : Progressive
Bits/(Pixel*Frame) : 0.097
Stream size : 1.78 GiB (93%)
Default : Yes
Forced : No

Audio
ID : 2
Format : AC-3
Format/Info : Audio Coding 3
Codec ID : A_AC3
Duration : 50 min 50 s
Bit rate mode : Constant
Bit rate : 256 kb/s
Channel(s) : 2 channels
Channel positions : Front: L R
Sampling rate : 48.0 kHz
Frame rate : 31.250 FPS (1536 SPF)
Bit depth : 16 bits
Compression mode : Lossy
Stream size : 93.1 MiB (5%)
Language : Russian
Service kind : Complete Main
Default : Yes
Forced : No
КУБКИ

СТАЖ

МЕДАЛИ
Награды:115

За активную помощь проекту (12) Лучший по количеству кубков (4) За отличные раздачи и качество (43) За подробное оформление раздач (10) За отличные комментарии (10) Почётный форумчанин (3) Верный Сид (30) За участие в конкурсах/играх (2)

Аватара пользователя
Тортуга
kisa1980
Главный помощник Администратора-Корсар
  • Торрент
Для скачивания торрента необходимо зарегистрироваться или войти на трекер.

Сообщение Lonrak1975 » 27 мар 2020, 23:41

Отличный сериал!
Отдыхаю от просмотра.Чем то напомнил "Метод". Актёры классно играют!!!
Большое спасибо уважаемый kisa1980 за релиз :hi: :good:
КУБКИ

СТАЖ

МЕДАЛИ
Награды:34

За помощь проекту в 200 рублей (1) За помощь проекту в 300 рублей (2) Лучший по количеству кубков (4) За отличные комментарии (24) Почётный форумчанин (1) Верный Сид (2)

Аватара пользователя
СССР
Lonrak1975
Мини VIP-300


Вернуться в Отечественные сериалы (HD Video)



Uptime по данным Ping-Admin.Ru - сервиса мониторинга доступности сайтов
Рейтинг@Mail.ru