logo
Международный русскоязычный
торрент-трекер
Menu
Магазин-KorsaRDoublon
Поделиться с друзьями: 
Голосуй за Корсар и получай дублоны
Рейтинг торрент трекеров - UpTracker.ru

Каратель / The Punisher (1989, боевик, триллер, драма, криминал, BDRip 1080p)

Сообщение msltel » 12 янв 2017, 12:18


Название: Каратель
Оригинальное название: The Punisher
Год выпуска: 1989
Страна: США, Австралия
Жанр: боевик, триллер, драма, криминал
Продолжительность: 01:29:05
Перевод: профессиональный многоголосый, профессиональный двухголосый, авторский

Режиссёр: Марк Голдблатт

В ролях: Дольф Лундгрен, Луис Госсет мл., Йерун Краббе, Ким Мийори, Брайан Маршалл, Нэнси Эверхард, Бэрри Отто, Брайан Руни, Зошка Мизак, Кэндзи Ямаки, Хирофуми Канаяма, Ларри МакКормик, Тодд Бойс, Лани Джон Тупу, Джон Негропонте, Нога Бернштейн, Эмма Соломан, Кортни Кейлер, Эмили Николь, Кэти Стирк, Доминик Бодиш, Роберт Фрайзер, Джеймс Клейн, Фотис Пелекис, Кристиан Мэнон, Колин Леонг, Брайан МакДермотт, Мэй Ллойд, Холли Роджерс

Описание: Полицейский Фрэнк Кастл с трудом пережил гибель семьи: его жена и дочь сгорели живьём во взорванном автомобиле. Теперь он стал судьёй и палачом 125-ти гангстеров, которых он разыскал и приговорил к смерти. Его невозможно остановить. Но у него слишком много врагов...



Качество: BDRip 1080p
Формат: MKV
Видео: MPEG-4 AVC, 15.5 Mбит/с, 1920x1036, 23,976 кадра/с
Аудио 1: русский, AC3, 192 kbps, 2 ch, 48 kHz [профессиональный многоголосый, Первый канал]
Аудио 2: русский, AC3, 384 kbps, 2 ch, 48 kHz [профессиональный двухголосый, Viking video]
Аудио 3: русский, AC3, 192 kbps, 2 ch, 48 kHz [авторский, Леонид Володарский]
Аудио 4: русский, DTS, 768 kbps, 6 ch, 48 kHz [авторский, Андрей Гаврилов]
Аудио 5: русский, DTS, 768 kbps, 6 ch, 48 kHz [авторский, Дмитрий Есарев]
Аудио 6: русский, AC3, 192 kbps, 2 ch, 48 kHz [авторский,Виктор Махонько (VHS)]
Аудио 7: английский, DTS, 768 kbps, 6 ch, 48 kHz [оригинал]
Субтитры 1: русские
Субтитры 2: английские
Имеются неименованные главы/чаптеры.

Общее
Уникальный идентификатор : 241088013160913679866458056000683883836 (0xB55FDCC4CD04F9BD91E26B00A3A7BD3C)
Полное имя : D:\Video\Каратель.1989.BDRip.1080p by msltel.mkv
Формат : Matroska
Версия формата : Version 4 / Version 2
Размер файла : 11,7 Гбайт
Продолжительность : 1 ч. 29 м.
Общий поток : 18,7 Мбит/сек
Название фильма : Rip by msltel
Дата кодирования : UTC 2017-01-12 07:20:27
Программа кодирования : mkvmerge v8.2.0 ('World of Adventure') 64bit
Библиотека кодирования : libebml v1.3.1 + libmatroska v1.4.2

Видео
Идентификатор : 1
Формат : AVC
Формат/Информация : Advanced Video Codec
Профиль формата : High@L4.1
Параметр CABAC формата : Да
Параметр ReFrames формата : 4 кадра
Идентификатор кодека : V_MPEG4/ISO/AVC
Продолжительность : 1 ч. 29 м.
Битрейт : 15,5 Мбит/сек
Ширина : 1920 пикселей
Высота : 1036 пикселей
Соотношение сторон : 1,85:1
Режим частоты кадров : Постоянный
Частота кадров : 23,976 (24000/1001) кадра/сек
Цветовое пространство : YUV
Субдискретизация насыщенности : 4:2:0
Битовая глубина : 8 бит
Тип развёртки : Прогрессивная
Бит/(Пиксели*Кадры) : 0.324
Размер потока : 9,62 Гбайт (83%)
Библиотека кодирования : x264 core 146 r2538 121396c
Настройки программы : cabac=1 / ref=4 / deblock=1:-3:-2 / analyse=0x3:0x113 / me=umh / subme=11 / psy=1 / psy_rd=1.00:0.15 / mixed_ref=1 / me_range=32 / chroma_me=1 / trellis=2 / 8x8dct=1 / cqm=0 / deadzone=21,11 / fast_pskip=0 / chroma_qp_offset=-3 / threads=6 / lookahead_threads=1 / sliced_threads=0 / nr=0 / decimate=1 / interlaced=0 / bluray_compat=0 / constrained_intra=0 / bframes=13 / b_pyramid=2 / b_adapt=2 / b_bias=0 / direct=1 / weightb=1 / open_gop=0 / weightp=2 / keyint=230 / keyint_min=23 / scenecut=40 / intra_refresh=0 / rc_lookahead=40 / rc=crf / mbtree=0 / crf=19.6 / qcomp=0.60 / qpmin=0 / qpmax=69 / qpstep=4 / vbv_maxrate=62500 / vbv_bufsize=78125 / crf_max=0.0 / nal_hrd=none / filler=0 / ip_ratio=1.40 / pb_ratio=1.30 / aq=1:1.00
Язык : English
Default : Да
Forced : Нет

Аудио #1
Идентификатор : 2
Формат : AC-3
Формат/Информация : Audio Coding 3
Расширение режима : CM (complete main)
Параметр Endianness формата : Big
Идентификатор кодека : A_AC3
Продолжительность : 1 ч. 29 м.
Вид битрейта : Постоянный
Битрейт : 192 Кбит/сек
Каналы : 2 канала
Расположение каналов : Front: L R
Частота : 48,0 КГц
Частота кадров : 31,250 кадров/сек (1536 spf)
Метод сжатия : С потерями
Размер потока : 122 Мбайт (1%)
Заголовок : MVO (Первый канал)
Язык : Russian
Default : Нет
Forced : Нет

Аудио #2
Идентификатор : 3
Формат : AC-3
Формат/Информация : Audio Coding 3
Расширение режима : CM (complete main)
Параметр Endianness формата : Big
Идентификатор кодека : A_AC3
Продолжительность : 1 ч. 29 м.
Вид битрейта : Постоянный
Битрейт : 384 Кбит/сек
Каналы : 2 канала
Расположение каналов : Front: L R
Частота : 48,0 КГц
Частота кадров : 31,250 кадров/сек (1536 spf)
Метод сжатия : С потерями
Размер потока : 245 Мбайт (2%)
Заголовок : DVO ((Viking video)
Язык : Russian
Default : Нет
Forced : Нет

Аудио #3
Идентификатор : 4
Формат : AC-3
Формат/Информация : Audio Coding 3
Расширение режима : CM (complete main)
Параметр Endianness формата : Big
Идентификатор кодека : A_AC3
Продолжительность : 1 ч. 29 м.
Вид битрейта : Постоянный
Битрейт : 192 Кбит/сек
Каналы : 2 канала
Расположение каналов : Front: L R
Частота : 48,0 КГц
Частота кадров : 31,250 кадров/сек (1536 spf)
Метод сжатия : С потерями
Размер потока : 122 Мбайт (1%)
Заголовок : AVO (Леонид Володарский)
Язык : Russian
Default : Нет
Forced : Нет

Аудио #4
Идентификатор : 5
Формат : DTS
Формат/Информация : Digital Theater Systems
Режим : 16
Параметр Endianness формата : Big
Идентификатор кодека : A_DTS
Продолжительность : 1 ч. 29 м.
Вид битрейта : Постоянный
Битрейт : 768 Кбит/сек
Каналы : 6 каналов
Расположение каналов : Front: L C R, Side: L R, LFE
Частота : 48,0 КГц
Частота кадров : 93,750 кадра/сек (512 spf)
Битовая глубина : 16 бит
Метод сжатия : С потерями
Размер потока : 489 Мбайт (4%)
Заголовок : AVO (Андрей Гаврилов)
Язык : Russian
Default : Нет
Forced : Нет

Аудио #5
Идентификатор : 6
Формат : DTS
Формат/Информация : Digital Theater Systems
Режим : 16
Параметр Endianness формата : Big
Идентификатор кодека : A_DTS
Продолжительность : 1 ч. 29 м.
Вид битрейта : Постоянный
Битрейт : 768 Кбит/сек
Каналы : 6 каналов
Расположение каналов : Front: L C R, Side: L R, LFE
Частота : 48,0 КГц
Частота кадров : 93,750 кадра/сек (512 spf)
Битовая глубина : 16 бит
Метод сжатия : С потерями
Размер потока : 489 Мбайт (4%)
Заголовок : AVO (Дмитрий Есарев)
Язык : Russian
Default : Нет
Forced : Нет

Аудио #6
Идентификатор : 7
Формат : AC-3
Формат/Информация : Audio Coding 3
Расширение режима : CM (complete main)
Параметр Endianness формата : Big
Идентификатор кодека : A_AC3
Продолжительность : 1 ч. 29 м.
Вид битрейта : Постоянный
Битрейт : 192 Кбит/сек
Каналы : 2 канала
Расположение каналов : Front: L R
Частота : 48,0 КГц
Частота кадров : 31,250 кадров/сек (1536 spf)
Метод сжатия : С потерями
Размер потока : 122 Мбайт (1%)
Заголовок : AVO (Виктор Махонько)
Язык : Russian
Default : Нет
Forced : Нет

Аудио #7
Идентификатор : 8
Формат : DTS
Формат/Информация : Digital Theater Systems
Режим : 16
Параметр Endianness формата : Big
Идентификатор кодека : A_DTS
Продолжительность : 1 ч. 29 м.
Вид битрейта : Постоянный
Битрейт : 768 Кбит/сек
Каналы : 6 каналов
Расположение каналов : Front: L C R, Side: L R, LFE
Частота : 48,0 КГц
Частота кадров : 93,750 кадра/сек (512 spf)
Битовая глубина : 16 бит
Метод сжатия : С потерями
Размер потока : 489 Мбайт (4%)
Заголовок : original
Язык : English
Default : Да
Forced : Нет

Текст #1
Идентификатор : 9
Формат : UTF-8
Идентификатор кодека : S_TEXT/UTF8
Идентификатор кодека/Информация : UTF-8 Plain Text
Продолжительность : 1 ч. 21 м.
Битрейт : 49 бит/сек
Count of elements : 948
Размер потока : 29,5 Кбайт (0%)
Заголовок : русские
Язык : Russian
Default : Нет
Forced : Нет

Текст #2
Идентификатор : 10
Формат : UTF-8
Идентификатор кодека : S_TEXT/UTF8
Идентификатор кодека/Информация : UTF-8 Plain Text
Продолжительность : 1 ч. 21 м.
Битрейт : 36 бит/сек
Count of elements : 941
Размер потока : 21,7 Кбайт (0%)
Заголовок : английские
Default : Да
Forced : Нет

Меню
00:00:00.000 : :Chapter 01
00:07:33.452 : :Chapter 02
00:15:58.832 : :Chapter 03
00:21:38.755 : :Chapter 04
00:29:20.759 : :Chapter 05
00:37:31.332 : :Chapter 06
00:43:20.514 : :Chapter 07
00:50:53.467 : :Chapter 08
00:58:21.915 : :Chapter 09
01:07:28.461 : :Chapter 10
01:14:21.039 : :Chapter 11
01:21:31.052 : :Chapter 12


Аватара пользователя
msltel
Уважаемый Релизёр-Корсар
 
 

Награды: 2
За отличные раздачи (1) Верный Сид (1)
  • Торрент
Для скачивания торрента необходимо зарегистрироваться или войти на трекер.

Вернуться в Зарубежное кино (1981-1990 / HD Video)



мониторинг сайтов