logo
Международный русскоязычный
торрент-трекер

Магазин-KorsaRDoublon

Поделиться с друзьями: 
Голосуй и получи дублоны
Рейтинг торрент трекеров - UpTracker.ru

Die Krupps - Live Im Schatten Der Ringe (2016, Aggro-Industrial / EBM, Blu-ray, 1080i)

Сообщение Korsar » 12 янв 2017, 04:11

Die Krupps - Live Im Schatten Der Ringe

Жанр: Aggro-Industrial / EBM
Продолжительность: 01:22:44
Год выпуска: 2016
Лейбл: AFM Records

Описание: Концертная запись легендарной индустриальной группы Die Krupps сделанная на E-tropolis Festival, Turbinenhalle, Oberhausen (Germany), 22 февраля 2014 года.

01. Intro
02. Blick Zuruck Im Zorn
03. Dawning Of Doom
04. Risikofaktor
05. Im Falschen Land
06. Essenbeck
07. Der Amboss
08. The Machinist Of Joy
09. Part Of The Machine
10. Industrie-Madchen
11. Schmutzfabrik
12. Robo Sapien
13. Metal Machine Music
14. To The Hilt
15. Nazis Auf Speed
16. Fatherland
17. Machineries Of Joy
18. Crossfire

Качество: Blu-ray
Разрешение видео/развертка: 1080i
Контейнер: BDMV
Видео кодек: H.264
Аудио кодек: PCM
Видео: 1920x1080i (16:9) / MPEG-4 AVC Video / 26982 kbps / 25 fps / High Profile 4.1
Аудио: Deutsch (LPCM Audio / 2.0 / 48 kHz / 1536 kbps / 16-bit)

Код: Выделить всё
Disc Title:     Die Krupps - Live Im Schatten Der Ringe (2016) Blu-ray
Disc Size:      19 296 214 788 bytes
Protection:     AACS
BD-Java:        No
Extras:         50Hz Content
BDInfo:         0.5.8

Notes:

BDINFO HOME:
  Cinema Squid
    [url=http://www.cinemasquid.com/blu-ray/tools/bdinfo]http://www.cinemasquid.com/blu-ray/tools/bdinfo[/url]

INCLUDES FORUMS REPORT FOR:
  AVS Forum Blu-ray Audio and Video Specifications Thread
    [url=http://www.avsforum.com/avs-vb/showthread.php?t=1155731]http://www.avsforum.com/avs-vb/showthread.php?t=1155731[/url]

********************
PLAYLIST: 00001.MPLS
********************

<--- BEGIN FORUMS PASTE --->
Код:
Код: Выделить всё
Total   Video
Title                                                           Codec   Length  Movie Size      Disc Size       Bitrate Bitrate Main Audio Track                          Secondary Audio Track
-----                                                           ------  ------- --------------  --------------  ------- ------- ------------------                        ---------------------
00001.MPLS                                                      AVC     1:22:44 18 673 631 232  19 296 214 788  30,09   26,98   LPCM 2.0 1536Kbps (48kHz/16-bit)

Код:
Код: Выделить всё
DISC INFO:

Disc Title:     Die Krupps - Live Im Schatten Der Ringe (2016) Blu-ray
Disc Size:      19 296 214 788 bytes
Protection:     AACS
BD-Java:        No
Extras:         50Hz Content
BDInfo:         0.5.8

PLAYLIST REPORT:

Name:                   00001.MPLS
Length:                 1:22:44.360 (h:m:s.ms)
Size:                   18 673 631 232 bytes
Total Bitrate:          30,09 Mbps

VIDEO:

Codec                   Bitrate             Description
-----                   -------             -----------
MPEG-4 AVC Video        26982 kbps          1080i / 25 fps / 16:9 / High Profile 4.1

AUDIO:

Codec                           Language        Bitrate         Description
-----                           --------        -------         -----------
LPCM Audio                      German          1536 kbps       2.0 / 48 kHz / 1536 kbps / 16-bit

FILES:

Name            Time In         Length          Size            Total Bitrate
----            -------         ------          ----            -------------
00002.M2TS      0:00:00.000     1:22:44.360     18 673 631 232  30 092

CHAPTERS:

Number          Time In         Length          Avg Video Rate  Max 1-Sec Rate  Max 1-Sec Time  Max 5-Sec Rate  Max 5-Sec Time  Max 10Sec Rate  Max 10Sec Time  Avg Frame Size  Max Frame Size  Max Frame Time
------          -------         ------          --------------  --------------  --------------  --------------  --------------  --------------  --------------  --------------  --------------  --------------
1               0:00:00.000     0:00:23.000     13 170 kbps     32 681 kbps     00:00:04.879    23 053 kbps     00:00:02.720    18 305 kbps     00:00:00.720    65 738 bytes    289 497 bytes   00:00:03.080
2               0:00:23.000     0:04:16.559     25 699 kbps     42 447 kbps     00:04:03.640    32 105 kbps     00:02:13.279    30 700 kbps     00:01:11.080    128 496 bytes   385 551 bytes   00:02:28.159
3               0:04:39.559     0:04:14.400     25 660 kbps     44 585 kbps     00:08:22.280    32 850 kbps     00:08:19.079    31 016 kbps     00:08:15.400    128 299 bytes   411 808 bytes   00:08:22.319
4               0:08:53.960     0:03:40.680     26 949 kbps     41 132 kbps     00:12:04.520    33 077 kbps     00:11:25.559    31 260 kbps     00:09:15.440    134 744 bytes   352 490 bytes   00:11:56.599
5               0:12:34.640     0:03:57.159     26 028 kbps     44 337 kbps     00:16:15.119    34 861 kbps     00:13:20.119    33 605 kbps     00:13:16.559    130 140 bytes   353 684 bytes   00:13:52.280
6               0:16:31.800     0:04:16.440     27 089 kbps     42 717 kbps     00:16:53.920    34 778 kbps     00:20:05.240    32 512 kbps     00:20:00.320    135 443 bytes   355 165 bytes   00:20:05.280
7               0:20:48.240     0:04:20.040     26 325 kbps     44 905 kbps     00:23:03.640    35 639 kbps     00:23:23.560    32 729 kbps     00:24:30.040    131 627 bytes   362 557 bytes   00:24:52.440
8               0:25:08.280     0:04:52.520     25 530 kbps     46 073 kbps     00:29:28.120    35 574 kbps     00:26:53.760    34 777 kbps     00:26:53.639    127 650 bytes   526 975 bytes   00:29:28.320
9               0:30:00.800     0:04:36.199     27 983 kbps     44 593 kbps     00:31:27.400    35 994 kbps     00:34:05.400    35 758 kbps     00:34:00.200    139 914 bytes   320 705 bytes   00:33:00.280
10              0:34:37.000     0:04:15.679     24 345 kbps     43 186 kbps     00:37:37.120    33 276 kbps     00:36:52.760    30 866 kbps     00:36:53.000    121 725 bytes   351 015 bytes   00:35:24.840
11              0:38:52.680     0:04:32.480     26 330 kbps     46 378 kbps     00:40:23.719    36 813 kbps     00:42:19.640    34 579 kbps     00:41:08.920    131 648 bytes   325 103 bytes   00:40:48.520
12              0:43:25.160     0:05:32.520     28 737 kbps     43 981 kbps     00:48:27.440    40 823 kbps     00:48:25.360    37 608 kbps     00:48:25.720    143 686 bytes   360 518 bytes   00:45:41.239
13              0:48:57.680     0:05:10.080     29 186 kbps     43 246 kbps     00:49:22.400    36 424 kbps     00:49:22.400    33 682 kbps     00:51:23.520    145 930 bytes   358 856 bytes   00:50:13.080
14              0:54:07.760     0:04:50.840     26 393 kbps     44 040 kbps     00:58:17.760    35 584 kbps     00:55:59.120    31 789 kbps     00:58:17.240    131 963 bytes   415 967 bytes   00:56:53.480
15              0:58:58.600     0:05:34.920     27 741 kbps     45 350 kbps     01:04:00.960    38 707 kbps     00:59:36.479    33 749 kbps     00:59:31.840    138 705 bytes   355 103 bytes   01:00:17.200
16              1:04:33.520     0:06:07.199     28 709 kbps     49 935 kbps     01:09:08.200    39 671 kbps     01:09:07.680    37 905 kbps     01:09:07.320    143 543 bytes   345 755 bytes   01:06:50.280
17              1:10:40.720     0:06:22.359     27 209 kbps     41 301 kbps     01:12:59.800    36 409 kbps     01:13:29.120    32 055 kbps     01:16:05.040    136 047 bytes   344 017 bytes   01:11:09.160
18              1:17:03.080     0:05:41.279     27 836 kbps     45 132 kbps     01:21:28.640    36 957 kbps     01:21:28.320    35 162 kbps     01:21:28.439    139 197 bytes   328 130 bytes   01:20:38.760

STREAM DIAGNOSTICS:

File            PID             Type            Codec           Language                Seconds                 Bitrate                 Bytes           Packets
----            ---             ----            -----           --------                --------------          --------------          -------------   -----
00002.M2TS      4113 (0x1011)   0x1B            AVC                                     4964,200                26 983                  16 743 778 662  91 134 189
00002.M2TS      4352 (0x1100)   0x80            LPCM            deu (German)            4964,200                1 542                   957 121 860     5 957 190

Код: Выделить всё
<---- END FORUMS PASTE ---->

QUICK SUMMARY:

Disc Title: Die Krupps - Live Im Schatten Der Ringe (2016) Blu-ray
Disc Size: 19 296 214 788 bytes
Protection: AACS
BD-Java: No
Playlist: 00001.MPLS
Size: 18 673 631 232 bytes
Length: 1:22:44.360
Total Bitrate: 30,09 Mbps
Video: MPEG-4 AVC Video / 26982 kbps / 1080i / 25 fps / 16:9 / High Profile 4.1
Audio: German / LPCM Audio / 2.0 / 48 kHz / 1536 kbps / 16-bit

********************
PLAYLIST: 00003.MPLS
********************

<--- BEGIN FORUMS PASTE --->
Код:
Код: Выделить всё
Total   Video
Title                                                           Codec   Length  Movie Size      Disc Size       Bitrate Bitrate Main Audio Track                          Secondary Audio Track
-----                                                           ------  ------- --------------  --------------  ------- ------- ------------------                        ---------------------
00003.MPLS                                                      AVC     0:01:22 288 817 152     19 296 214 788  27,96   24,86   LPCM 2.0 1536Kbps (48kHz/16-bit)

Код:
Код: Выделить всё
DISC INFO:

Disc Title:     Die Krupps - Live Im Schatten Der Ringe (2016) Blu-ray
Disc Size:      19 296 214 788 bytes
Protection:     AACS
BD-Java:        No
Extras:         50Hz Content
BDInfo:         0.5.8

PLAYLIST REPORT:

Name:                   00003.MPLS
Length:                 0:01:22.639 (h:m:s.ms)
Size:                   288 817 152 bytes
Total Bitrate:          27,96 Mbps

VIDEO:

Codec                   Bitrate             Description
-----                   -------             -----------
MPEG-4 AVC Video        24861 kbps          1080i / 25 fps / 16:9 / High Profile 4.1

AUDIO:

Codec                           Language        Bitrate         Description
-----                           --------        -------         -----------
LPCM Audio                      German          1536 kbps       2.0 / 48 kHz / 1536 kbps / 16-bit

SUBTITLES:

Codec                           Language        Bitrate         Description
-----                           --------        -------         -----------
Interactive Graphics            German          61,726 kbps

FILES:

Name            Time In         Length          Size            Total Bitrate
----            -------         ------          ----            -------------
00001.M2TS      0:00:00.000     0:01:22.639     288 817 152     27 959

CHAPTERS:

Number          Time In         Length          Avg Video Rate  Max 1-Sec Rate  Max 1-Sec Time  Max 5-Sec Rate  Max 5-Sec Time  Max 10Sec Rate  Max 10Sec Time  Avg Frame Size  Max Frame Size  Max Frame Time
------          -------         ------          --------------  --------------  --------------  --------------  --------------  --------------  --------------  --------------  --------------  --------------
1               0:00:00.000     0:01:22.639     24 861 kbps     38 224 kbps     00:00:00.679    30 167 kbps     00:00:00.679    27 433 kbps     00:00:00.120    124 307 bytes   251 562 bytes   00:00:01.440

STREAM DIAGNOSTICS:

File            PID             Type            Codec           Language                Seconds                 Bitrate                 Bytes           Packets
----            ---             ----            -----           --------                --------------          --------------          -------------   -----
00001.M2TS      4113 (0x1011)   0x1B            AVC                                     82,560                  24 885                  256 817 401     1 398 000
00001.M2TS      4352 (0x1100)   0x80            LPCM            deu (German)            82,560                  1 547                   15 968 660      99 390
00001.M2TS      5120 (0x1400)   0x91            IGS             deu (German)            82,560                  62                      637 629         3 509

Код: Выделить всё
<---- END FORUMS PASTE ---->

QUICK SUMMARY:

Disc Title: Die Krupps - Live Im Schatten Der Ringe (2016) Blu-ray
Disc Size: 19 296 214 788 bytes
Protection: AACS
BD-Java: No
Playlist: 00003.MPLS
Size: 288 817 152 bytes
Length: 0:01:22.639
Total Bitrate: 27,96 Mbps
Video: MPEG-4 AVC Video / 24861 kbps / 1080i / 25 fps / 16:9 / High Profile 4.1
Audio: German / LPCM Audio / 2.0 / 48 kHz / 1536 kbps / 16-bit
Subtitle: German / 61,726 kbps

********************
PLAYLIST: 00002.MPLS
********************

<--- BEGIN FORUMS PASTE --->
Код:
Код: Выделить всё
Total   Video
Title                                                           Codec   Length  Movie Size      Disc Size       Bitrate Bitrate Main Audio Track                          Secondary Audio Track
-----                                                           ------  ------- --------------  --------------  ------- ------- ------------------                        ---------------------
00002.MPLS                                                      AVC     0:00:29 40 894 464      19 296 214 788  11,20   8,83    LPCM 2.0 1536Kbps (48kHz/16-bit)

Код:
Код: Выделить всё
DISC INFO:

Disc Title:     Die Krupps - Live Im Schatten Der Ringe (2016) Blu-ray
Disc Size:      19 296 214 788 bytes
Protection:     AACS
BD-Java:        No
Extras:         50Hz Content
BDInfo:         0.5.8

PLAYLIST REPORT:

Name:                   00002.MPLS
Length:                 0:00:29.200 (h:m:s.ms)
Size:                   40 894 464 bytes
Total Bitrate:          11,20 Mbps

VIDEO:

Codec                   Bitrate             Description
-----                   -------             -----------
MPEG-4 AVC Video        8831 kbps           1080i / 25 fps / 16:9 / High Profile 4.1

AUDIO:

Codec                           Language        Bitrate         Description
-----                           --------        -------         -----------
LPCM Audio                      German          1536 kbps       2.0 / 48 kHz / 1536 kbps / 16-bit

SUBTITLES:

Codec                           Language        Bitrate         Description
-----                           --------        -------         -----------
Interactive Graphics            German          0,117 kbps

FILES:

Name            Time In         Length          Size            Total Bitrate
----            -------         ------          ----            -------------
00004.M2TS      0:00:00.000     0:00:29.200     40 894 464      11 204

CHAPTERS:

Number          Time In         Length          Avg Video Rate  Max 1-Sec Rate  Max 1-Sec Time  Max 5-Sec Rate  Max 5-Sec Time  Max 10Sec Rate  Max 10Sec Time  Avg Frame Size  Max Frame Size  Max Frame Time
------          -------         ------          --------------  --------------  --------------  --------------  --------------  --------------  --------------  --------------  --------------  --------------
1               0:00:00.000     0:00:29.200     8 831 kbps      56 731 kbps     00:00:27.639    25 990 kbps     00:00:23.960    15 005 kbps     00:00:18.960    44 156 bytes    719 896 bytes   00:00:28.519

STREAM DIAGNOSTICS:

File            PID             Type            Codec           Language                Seconds                 Bitrate                 Bytes           Packets
----            ---             ----            -----           --------                --------------          --------------          -------------   -----
00004.M2TS      4113 (0x1011)   0x1B            AVC                                     29,120                  8 855                   32 233 668      176 131
00004.M2TS      4352 (0x1100)   0x80            LPCM            deu (German)            29,120                  1 547                   5 629 760       35 040
00004.M2TS      5120 (0x1400)   0x91            IGS             deu (German)            29,120                  0                       427             6

Код: Выделить всё
<---- END FORUMS PASTE ---->

QUICK SUMMARY:

Disc Title: Die Krupps - Live Im Schatten Der Ringe (2016) Blu-ray
Disc Size: 19 296 214 788 bytes
Protection: AACS
BD-Java: No
Playlist: 00002.MPLS
Size: 40 894 464 bytes
Length: 0:00:29.200
Total Bitrate: 11,20 Mbps
Video: MPEG-4 AVC Video / 8831 kbps / 1080i / 25 fps / 16:9 / High Profile 4.1
Audio: German / LPCM Audio / 2.0 / 48 kHz / 1536 kbps / 16-bit
Subtitle: German / 0,117 kbps




Внимание! Раздача осуществляется исключительно в ознакомительных целях.
Attention! Handing out is carried out only to get acquainted.

Аватара пользователя
Korsar
Помощник Администратора-Корсар
 
Месяцев на трекере: 7Месяцев на трекере: 7Месяцев на трекере: 7Месяцев на трекере: 7Месяцев на трекере: 7Месяцев на трекере: 7Месяцев на трекере: 7
 
Зарегистрирован: 15 авг 2016, 17:15
В кошельке: 53,697.00
Банк: 0.00
Откуда: CCCР
Флаги:
СССР

Награды: 2
За отличные раздачи (1) Верный Сид (1)
  • Торрент
Автор: Korsar Хэш: ---
Добавлен: 12 янв 2017, 04:11 Приватный: Нет (DHT включён)
Статус: Проверен
Размер: 17.97 ГБ (19 296 214 788 байт)
Изменил: Korsar (12 янв 2017, 04:14)
Скачали: 0 (Раздающих: 0%)
Причина:
---
Здоровье: 0%
Сидеров: 0 Личеров: 0
Скорость раздачи: 0 байт/сек Скорость скачивания: 0 байт/сек
Последний сидер: Нет Последний личер: Нет
Для скачивания торрента необходимо зарегистрироваться или войти на трекер.

Вернуться в Концерты

На Korsar.tv нет рекламы, для доступа ко всем возможностям отключите блокировщики рекламы!!!
проверить сайт