logo
Международный русскоязычный
торрент-трекер
Menu

Магазин-KorsaRDoublon

Поделиться с друзьями: 
Голосуй и получи дублоны
Рейтинг торрент трекеров - UpTracker.ru

ABBA • 40 Jahre Waterloo (2014, Documentary, HDTV 1080i)

Сообщение Korsar » 11 янв 2017, 17:22


40 Jahre Waterloo


#777

#777

Жанр: Documentary
Продолжительность: 03:35:11
Год выпуска: 2014
Качество: HDTV 1080i
Контейнер: TS
Видео кодек: H.264
Аудио кодек: AC3
Видео: MPEG4 Video (H264) 1920x1080 25fps 6857Kbps
Аудио: Dolby AC3 48000Hz stereo 384kbps
Язык: немецкий
Код: Выделить всё
General
ID                             : 1 (0x1)
Complete name                  : E:\ABBA - 40 Jahre Waterloo (2014).ts
Format                         : MPEG-TS
File size                      : 11.5 GiB
Duration                       : 3h 35mn
Overall bit rate mode          : Variable
Overall bit rate               : 7 622 Kbps

Video
ID                             : 511 (0x1FF)
Menu ID                        : 1 (0x1)
Format                         : AVC
Format/Info                    : Advanced Video Codec
Format profile                 : High@L4.0
Format settings, CABAC         : Yes
Format settings, ReFrames      : 4 frames
Codec ID                       : 27
Duration                       : 3h 35mn
Bit rate                       : 6 857 Kbps
Width                          : 1 920 pixels
Height                         : 1 080 pixels
Display aspect ratio           : 16:9
Frame rate                     : 25.000 fps
Color space                    : YUV
Chroma subsampling             : 4:2:0
Bit depth                      : 8 bits
Scan type                      : MBAFF
Bits/(Pixel*Frame)             : 0.132
Stream size                    : 10.3 GiB (90%)

Audio
ID                             : 515 (0x203)
Menu ID                        : 1 (0x1)
Format                         : AC-3
Format/Info                    : Audio Coding 3
Mode extension                 : CM (complete main)
Format settings, Endianness    : Big
Codec ID                       : 6
Duration                       : 3h 35mn
Bit rate mode                  : Constant
Bit rate                       : 384 Kbps
Channel(s)                     : 2 channels
Channel positions              : Front: L R
Sampling rate                  : 48.0 KHz
Bit depth                      : 16 bits
Compression mode               : Lossy
Stream size                    : 591 MiB (5%)
Language                       : German
[center][url=http://radikal.ru/f/s006.radikal.ru/i213/1404/6c/3f5136b3b032.png.html]
Аватара пользователя
Korsar
Помощник Администратора-Корсар
 
Месяцев на трекере: 9Месяцев на трекере: 9Месяцев на трекере: 9Месяцев на трекере: 9Месяцев на трекере: 9Месяцев на трекере: 9Месяцев на трекере: 9Месяцев на трекере: 9Месяцев на трекере: 9
 

Награды: 2
За отличные раздачи (2)
  • Торрент
Для скачивания торрента необходимо зарегистрироваться или войти на трекер.

Вернуться в Биографии. Личности и кумиры (HD Video)



мониторинг сайтов