logo
Международный русскоязычный
торрент-трекер

Магазин-KorsaRDoublon

Поделиться с друзьями: 

Klute - Music For Prophet [2CD], (2010, Drum n Bass, Commercial Suicide ) FLAC, lossless

Сообщение Korsar » 11 янв 2017, 06:33

Klute - Music for Prophet

Жанр: Drum n Bass
Год выпуска диска: 2010
Производитель диска: UK
Аудио кодек: FLAC
Тип рипа: tracks+.cue
Битрейт аудио: lossless
Продолжительность: CD1: 70m, CD2: 62m
Источник: what.cd (thx to noizepol)
Треклист:
Disc 1
01 Knowing How To Get There 7:03
02 Will You Still Love Me? 6:15
03 Media 6:18
04 Strange Dinner 6:41
05 Fool's Love 5:28
06 Interlude 1 3_1 2:04
07 Autumn Stone 5:34
08 Blackpony 5:56
09 Make It Stop 5:42
10 Buy More Now 6:07
11 Ashram 6:56
12 Always Dreaming 6:31

Disc 2
01 Hypocrite 5:48
02 Give A Lil Luv 5:43
03 No Mistake 6:37
04 Avoiding People 6:48
05 Melt 4:57
06 Because You Can 6:34
07 Pancakes 7:42
08 3rd Patch 5:54
09 Bleeding Sun 6:10
10 Son Of Sam 6:36
Код: Выделить всё
REM GENRE "Drum & Bass"
REM DATE 2010
REM DISCID 9C108A0C
REM COMMENT "ExactAudioCopy v0.99pb5"
PERFORMER "Klute"
TITLE "Music For Prophet  "
FILE "01 - Knowing How To Get There.wav" WAVE
  TRACK 01 AUDIO
    TITLE "Knowing How To Get There"
    PERFORMER "Klute"
    INDEX 01 00:00:00
  TRACK 02 AUDIO
    TITLE "Will You Still Love Me?"
    PERFORMER "Klute"
    INDEX 00 07:01:22
FILE "02 - Will You Still Love Me .wav" WAVE
    INDEX 01 00:00:00
  TRACK 03 AUDIO
    TITLE "Media"
    PERFORMER "Klute"
    INDEX 00 06:12:57
FILE "03 - Media.wav" WAVE
    INDEX 01 00:00:00
  TRACK 04 AUDIO
    TITLE "Strange Dinner"
    PERFORMER "Klute"
    INDEX 00 06:16:03
FILE "04 - Strange Dinner.wav" WAVE
    INDEX 01 00:00:00
  TRACK 05 AUDIO
    TITLE "Fools Love"
    PERFORMER "Klute"
    INDEX 00 06:38:45
FILE "05 - Fools Love.wav" WAVE
    INDEX 01 00:00:00
FILE "06 - Interlude 3 1_01.wav" WAVE
  TRACK 06 AUDIO
    TITLE "Interlude 3 1_01"
    PERFORMER "Klute"
    INDEX 01 00:00:00
  TRACK 07 AUDIO
    TITLE "Autumn Stone"
    PERFORMER "Klute"
    INDEX 00 02:02:11
FILE "07 - Autumn Stone.wav" WAVE
    INDEX 01 00:00:00
  TRACK 08 AUDIO
    TITLE "Blackpony"
    PERFORMER "Klute"
    INDEX 00 05:31:38
FILE "08 - Blackpony.wav" WAVE
    INDEX 01 00:00:00
  TRACK 09 AUDIO
    TITLE "Make It Stop"
    PERFORMER "Klute"
    INDEX 00 05:54:17
FILE "09 - Make It Stop.wav" WAVE
    INDEX 01 00:00:00
  TRACK 10 AUDIO
    TITLE "Buy More Now"
    PERFORMER "Klute"
    INDEX 00 05:40:06
FILE "10 - Buy More Now.wav" WAVE
    INDEX 01 00:00:00
  TRACK 11 AUDIO
    TITLE "Ashram"
    PERFORMER "Klute"
    INDEX 00 06:04:43
FILE "11 - Ashram.wav" WAVE
    INDEX 01 00:00:00
  TRACK 12 AUDIO
    TITLE "Always Dreaming"
    PERFORMER "Klute"
    INDEX 00 06:54:03
FILE "12 - Always Dreaming.wav" WAVE
    INDEX 01 00:00:00
Код: Выделить всё
Exact Audio Copy V0.99 prebeta 5 from 4. May 2009

EAC extraction logfile from 29. July 2010, 12:12

Klute / Music For Prophet

Used drive  : Optiarc DVD RW AD-7201S   Adapter: 2  ID: 0

Read mode               : Secure
Utilize accurate stream : Yes
Defeat audio cache      : Yes
Make use of C2 pointers : No

Read offset correction                      : 48
Overread into Lead-In and Lead-Out          : No
Fill up missing offset samples with silence : Yes
Delete leading and trailing silent blocks   : No
Null samples used in CRC calculations       : Yes
Used interface                              : Native Win32 interface for Win NT & 2000
Gap handling                                : Appended to previous track

Used output format              : User Defined Encoder
Selected bitrate                : 128 kBit/s
Quality                         : High
Add ID3 tag                     : No
Command line compressor         : C:\Program Files (x86)\FLAC\flac.exe
Additional command line options : -V -8 -T "artist=%a" -T "title=%t" -T "album=%g" -T "date=%y" -T "tracknumber=%n" -T "genre=%m" %s

TOC of the extracted CD

     Track |   Start  |  Length  | Start sector | End sector
    ---------------------------------------------------------
        1  |  0:00.00 |  7:03.23 |         0    |    31747
        2  |  7:03.23 |  6:14.57 |     31748    |    59854
        3  | 13:18.05 |  6:18.03 |     59855    |    88207
        4  | 19:36.08 |  6:40.46 |     88208    |   118253
        5  | 26:16.54 |  5:28.18 |    118254    |   142871
        6  | 31:44.72 |  2:04.12 |    142872    |   152183
        7  | 33:49.09 |  5:33.39 |    152184    |   177197
        8  | 39:22.48 |  5:56.17 |    177198    |   203914
        9  | 45:18.65 |  5:42.06 |    203915    |   229570
       10  | 51:00.71 |  6:06.43 |    229571    |   257063
       11  | 57:07.39 |  6:56.03 |    257064    |   288266
       12  | 64:03.42 |  6:30.53 |    288267    |   317569

Track  1

     Filename D:\Music\New\01 - Knowing How To Get There.wav

     Pre-gap length  0:00:02.00

     Peak level 99.7 %
     Track quality 100.0 %
     Test CRC BD85C262
     Copy CRC BD85C262
     Copy OK

Track  2

     Filename D:\Music\New\02 - Will You Still Love Me .wav

     Pre-gap length  0:00:02.01

     Peak level 99.8 %
     Track quality 100.0 %
     Test CRC 45BBEFD2
     Copy CRC 45BBEFD2
     Copy OK

Track  3

     Filename D:\Music\New\03 - Media.wav

     Pre-gap length  0:00:02.00

     Peak level 99.7 %
     Track quality 100.0 %
     Test CRC A9A399D3
     Copy CRC A9A399D3
     Copy OK

Track  4

     Filename D:\Music\New\04 - Strange Dinner.wav

     Pre-gap length  0:00:02.00

     Peak level 99.7 %
     Track quality 100.0 %
     Test CRC C1759758
     Copy CRC C1759758
     Copy OK

Track  5

     Filename D:\Music\New\05 - Fools Love.wav

     Pre-gap length  0:00:02.01

     Peak level 98.6 %
     Track quality 100.0 %
     Test CRC 420937B8
     Copy CRC 420937B8
     Copy OK

Track  6

     Filename D:\Music\New\06 - Interlude 3 1_01.wav

     Peak level 82.3 %
     Track quality 100.0 %
     Test CRC C214C84A
     Copy CRC C214C84A
     Copy OK

Track  7

     Filename D:\Music\New\07 - Autumn Stone.wav

     Pre-gap length  0:00:02.01

     Peak level 99.7 %
     Track quality 100.0 %
     Test CRC DB2351CB
     Copy CRC DB2351CB
     Copy OK

Track  8

     Filename D:\Music\New\08 - Blackpony.wav

     Pre-gap length  0:00:02.01

     Peak level 98.9 %
     Track quality 100.0 %
     Test CRC 373EA5E8
     Copy CRC 373EA5E8
     Copy OK

Track  9

     Filename D:\Music\New\09 - Make It Stop.wav

     Pre-gap length  0:00:02.00

     Peak level 99.8 %
     Track quality 100.0 %
     Test CRC DE57C28F
     Copy CRC DE57C28F
     Copy OK

Track 10

     Filename D:\Music\New\10 - Buy More Now.wav

     Pre-gap length  0:00:02.00

     Peak level 85.6 %
     Track quality 99.9 %
     Test CRC A9B3A696
     Copy CRC A9B3A696
     Copy OK

Track 11

     Filename D:\Music\New\11 - Ashram.wav

     Pre-gap length  0:00:02.00

     Peak level 99.7 %
     Track quality 100.0 %
     Test CRC 354AB08D
     Copy CRC 354AB08D
     Copy OK

Track 12

     Filename D:\Music\New\12 - Always Dreaming.wav

     Pre-gap length  0:00:02.00

     Peak level 99.8 %
     Track quality 100.0 %
     Test CRC 83A85255
     Copy CRC 83A85255
     Copy OK

No errors occurred

End of status report
Код: Выделить всё
REM GENRE Techno
REM DATE 2010
REM DISCID 9C0EB80A
REM COMMENT "ExactAudioCopy v0.99pb5"
PERFORMER "Klute "
TITLE "Music for Prophet Disc 2"
FILE "01 - Hypocrite.wav" WAVE
  TRACK 01 AUDIO
    TITLE "Hypocrite"
    PERFORMER "Klute "
    INDEX 01 00:00:00
  TRACK 02 AUDIO
    TITLE "Giv A Lil Luv"
    PERFORMER "Klute "
    INDEX 00 05:45:42
FILE "02 - Giv A Lil Luv.wav" WAVE
    INDEX 01 00:00:00
  TRACK 03 AUDIO
    TITLE "No Mistake"
    PERFORMER "Klute "
    INDEX 00 05:41:24
FILE "03 - No Mistake.wav" WAVE
    INDEX 01 00:00:00
  TRACK 04 AUDIO
    TITLE "Avoiding People"
    PERFORMER "Klute "
    INDEX 00 06:34:65
FILE "04 - Avoiding People.wav" WAVE
    INDEX 01 00:00:00
  TRACK 05 AUDIO
    TITLE "Melt"
    PERFORMER "Klute "
    INDEX 00 06:46:12
FILE "05 - Melt.wav" WAVE
    INDEX 01 00:00:00
  TRACK 06 AUDIO
    TITLE "Because You Can"
    PERFORMER "Klute "
    INDEX 00 04:55:19
FILE "06 - Because You Can.wav" WAVE
    INDEX 01 00:00:00
  TRACK 07 AUDIO
    TITLE "Pancakes"
    PERFORMER "Klute "
    INDEX 00 06:31:62
FILE "07 - Pancakes.wav" WAVE
    INDEX 01 00:00:00
  TRACK 08 AUDIO
    TITLE "3Rd Patch"
    PERFORMER "Klute "
    INDEX 00 07:40:14
FILE "08 - 3Rd Patch.wav" WAVE
    INDEX 01 00:00:00
  TRACK 09 AUDIO
    TITLE "Bleeding Sun"
    PERFORMER "Klute "
    INDEX 00 05:52:16
FILE "09 - Bleeding Sun.wav" WAVE
    INDEX 01 00:00:00
  TRACK 10 AUDIO
    TITLE "Son Of Sam "
    PERFORMER "Klute "
    INDEX 00 06:07:58
FILE "10 - Son Of Sam.wav" WAVE
    INDEX 01 00:00:00
Код: Выделить всё
Exact Audio Copy V0.99 prebeta 5 from 4. May 2009

EAC extraction logfile from 29. July 2010, 13:21

Klute  / Music for Prophet Disc 2

Used drive  : Optiarc DVD RW AD-7201S   Adapter: 2  ID: 0

Read mode               : Secure
Utilize accurate stream : Yes
Defeat audio cache      : Yes
Make use of C2 pointers : No

Read offset correction                      : 48
Overread into Lead-In and Lead-Out          : No
Fill up missing offset samples with silence : Yes
Delete leading and trailing silent blocks   : No
Null samples used in CRC calculations       : Yes
Used interface                              : Native Win32 interface for Win NT & 2000
Gap handling                                : Appended to previous track

Used output format              : User Defined Encoder
Selected bitrate                : 128 kBit/s
Quality                         : High
Add ID3 tag                     : No
Command line compressor         : C:\Program Files (x86)\FLAC\flac.exe
Additional command line options : -V -8 -T "artist=%a" -T "title=%t" -T "album=%g" -T "date=%y" -T "tracknumber=%n" -T "genre=%m" %s

TOC of the extracted CD

     Track |   Start  |  Length  | Start sector | End sector
    ---------------------------------------------------------
        1  |  0:00.00 |  5:47.43 |         0    |    26067
        2  |  5:47.43 |  5:43.24 |     26068    |    51816
        3  | 11:30.67 |  6:36.67 |     51817    |    81583
        4  | 18:07.59 |  6:48.13 |     81584    |   112196
        5  | 24:55.72 |  4:57.19 |    112197    |   134490
        6  | 29:53.16 |  6:33.62 |    134491    |   164027
        7  | 36:27.03 |  7:42.14 |    164028    |   198691
        8  | 44:09.17 |  5:54.17 |    198692    |   225258
        9  | 50:03.34 |  6:09.58 |    225259    |   252991
       10  | 56:13.17 |  6:35.51 |    252992    |   282667

Track  1

     Filename D:\Music\New\01 - Hypocrite.wav

     Pre-gap length  0:00:02.00

     Peak level 96.6 %
     Track quality 100.0 %
     Test CRC 2FB65A83
     Copy CRC 2FB65A83
     Copy OK

Track  2

     Filename D:\Music\New\02 - Giv A Lil Luv.wav

     Pre-gap length  0:00:02.01

     Peak level 96.0 %
     Track quality 99.9 %
     Test CRC 1470A144
     Copy CRC 1470A144
     Copy OK

Track  3

     Filename D:\Music\New\03 - No Mistake.wav

     Pre-gap length  0:00:02.00

     Peak level 96.6 %
     Track quality 100.0 %
     Test CRC 2BFABD28
     Copy CRC 2BFABD28
     Copy OK

Track  4

     Filename D:\Music\New\04 - Avoiding People.wav

     Pre-gap length  0:00:02.02

     Peak level 96.3 %
     Track quality 100.0 %
     Test CRC 9DE90A1B
     Copy CRC 9DE90A1B
     Copy OK

Track  5

     Filename D:\Music\New\05 - Melt.wav

     Pre-gap length  0:00:02.01

     Peak level 96.4 %
     Track quality 100.0 %
     Test CRC 78EF44D9
     Copy CRC 78EF44D9
     Copy OK

Track  6

     Filename D:\Music\New\06 - Because You Can.wav

     Pre-gap length  0:00:02.00

     Peak level 96.4 %
     Track quality 99.9 %
     Test CRC 731B3CCA
     Copy CRC 731B3CCA
     Copy OK

Track  7

     Filename D:\Music\New\07 - Pancakes.wav

     Pre-gap length  0:00:02.00

     Peak level 96.8 %
     Track quality 100.0 %
     Test CRC 789E41A9
     Copy CRC 789E41A9
     Copy OK

Track  8

     Filename D:\Music\New\08 - 3Rd Patch.wav

     Pre-gap length  0:00:02.00

     Peak level 100.0 %
     Track quality 100.0 %
     Test CRC 2D7CE09B
     Copy CRC 2D7CE09B
     Copy OK

Track  9

     Filename D:\Music\New\09 - Bleeding Sun.wav

     Pre-gap length  0:00:02.01

     Peak level 99.9 %
     Track quality 100.0 %
     Test CRC 6AAADF05
     Copy CRC 6AAADF05
     Copy OK

Track 10

     Filename D:\Music\New\10 - Son Of Sam.wav

     Pre-gap length  0:00:02.00

     Peak level 95.9 %
     Track quality 100.0 %
     Test CRC 2D8156E0
     Copy CRC 2D8156E0
     Copy OK

No errors occurred

End of status report
Аватара пользователя
Korsar
Помощник Администратора-Корсар
 
Месяцев на трекере: 6Месяцев на трекере: 6Месяцев на трекере: 6Месяцев на трекере: 6Месяцев на трекере: 6Месяцев на трекере: 6
 
Зарегистрирован: 15 авг 2016, 17:15
В кошельке: 22,061.00
Банк: 0.00
Откуда: CCCР
Флаги:
СССР-2

Награды: 3
За отличные раздачи (2) За развитие форума (1)
  • Торрент
Автор: Korsar Хэш: ---
Добавлен: 11 янв 2017, 06:33 Приватный: Нет (DHT включён)
Статус: Проверен
Размер: 834.79 МБ (875 344 976 байт)
Изменил: Korsar (11 янв 2017, 06:35)
Скачали: 0 (Раздающих: 100%)
Причина:
---
Здоровье: 100%
Сидеров: 5 Личеров: 1
Скорость раздачи: 0 байт/сек Скорость скачивания: 0 байт/сек
Последний сидер: 4 дня 18 часов 22 минуты 10 секунд назад Последний личер: 4 дня 18 часов 22 минуты 10 секунд назад
Для скачивания торрента необходимо зарегистрироваться или войти на трекер.

Вернуться в Drum & Bass, Jungle, Breakbeat, Dubstep, IDM, Electro (Lossless)

Выключите ADBLOCK!
проверить сайт
cron