logo
Международный русскоязычный
торрент-трекер

SHOP-KorsaRDoublon

Поделиться с друзьями: 

Богородица. Земной путь (2017, Документальный, биография, HDTVRip-AVC)

Сообщение Sanechek » 08 янв 2017, 19:40

Название: Богородица. Земной путь
Год выхода: 2017
Жанр: Документальный, биография
Режиссер: Константин Мурашёв
В фильме приняли участие: Патриарх Московский и всея Руси Кирилл, Алексей Осипов (профессор, библеист), Михаил Якушев (историк-востоковед), Виктория Макарская (певица), Антон Макарский (актер), Екатерина Андреева (телеведущая), Стас Михайлов (заслуженный артист РФ), Михаил Король (историк-краевед), Роман Гультяев (диакон, историк), Глеб Ястребов (историк-библеист), Игумения Сергия (настоятельница Свято-Троицкого Серафимо-Дивеевского монастыря)

О фильме: Её называют по-разному: Богородица, Царица Небесная, Пресвятая Дева или Утешительница. Но что мы о Ней знаем? У каждого из нас есть в голове сложившийся образ Божьей Матери, хотя на самом деле о Ней совсем немного сказано в Библии, в основном в Евангелиях. На страницах Святого Писания Она упоминается всего несколько раз, да и то вскользь. Эти упоминания обезличены. Они рассказывают о Её поступках, а не о Ней самой. Из Библии нельзя узнать, о чем думала, о чем мечтала, в конце концов, как выглядела или где жила Богоматерь. Но в нашем двухсерийном фильме мы попробуем представить себе Её жизнь. И, возможно, это поможет нам лучше понять суть подвига Богородицы. Если переходить на современные термины, то вкратце ее можно было бы описать так: раннее сиротство, жизнь при храме, подозрения супруга в измене. Это начало жизненного пути Пресвятой Богородицы. А потом - издевательства толпы над Сыном, Его мученическая смерть и долгие годы жизни без Него...

Выпущено: Россия, 1 канал
Продолжительность: 01:24:55
Перевод: не требуется

Файл
Кодек: х264
Качество: HDTVRip-AVC
Видео: MPEG-4 AVC, 1024x576, 25 fps, 2700 Кбит/с
Звук: AC3, 6 ch, 384 Кбит/с

Общее
Уникальный идентификатор : 178055979366394167587752034360846833619 (0x85F4559101FF2F1D88EAC92F8FD5D7D3)
Полное имя : D:\Ф А Й Л Ы\Богородица. Земной путь (2017).mkv
Формат : Matroska
Версия формата : Version 2
Размер файла : 1,83 Гбайт
Продолжительность : 1 ч. 24 м.
Общий поток : 3086 Кбит/сек
Дата кодирования : UTC 2017-01-08 15:07:59
Программа кодирования : mkvmerge v7.8.0 ('River Man') 32bit built on Apr 3 2015 12:11:22
Библиотека кодирования : libebml v1.3.1 + libmatroska v1.4.2

Видео
Идентификатор : 1
Формат : AVC
Формат/Информация : Advanced Video Codec
Профиль формата : High@L4.1
Параметр CABAC формата : Да
Параметр ReFrames формата : 12 кадров
Идентификатор кодека : V_MPEG4/ISO/AVC
Продолжительность : 1 ч. 24 м.
Битрейт : 2700 Кбит/сек
Ширина : 1024 пикселя
Высота : 576 пикселей
Соотношение сторон : 16:9
Режим частоты кадров : Постоянный
Частота кадров : 25,000 кадров/сек
Цветовое пространство : YUV
Субдискретизация насыщенности : 4:2:0
Битовая глубина : 8 бит
Тип развёртки : Прогрессивная
Бит/(Пиксели*Кадры) : 0.183
Размер потока : 1,57 Гбайт (86%)
Библиотека кодирования : x264 core 146 r2538 121396c
Настройки программы : cabac=1 / ref=12 / deblock=1:-2:-2 / analyse=0x3:0x113 / me=umh / subme=10 / psy=1 / psy_rd=1.05:0.10 / mixed_ref=1 / me_range=32 / chroma_me=1 / trellis=2 / 8x8dct=1 / cqm=0 / deadzone=21,11 / fast_pskip=0 / chroma_qp_offset=-3 / threads=3 / lookahead_threads=1 / sliced_threads=0 / nr=0 / decimate=0 / interlaced=0 / bluray_compat=0 / constrained_intra=0 / bframes=16 / b_pyramid=2 / b_adapt=2 / b_bias=0 / direct=3 / weightb=1 / open_gop=0 / weightp=2 / keyint=250 / keyint_min=25 / scenecut=40 / intra_refresh=0 / rc=2pass / mbtree=0 / bitrate=2700 / ratetol=1.0 / qcomp=0.63 / qpmin=0 / qpmax=69 / qpstep=4 / cplxblur=20.0 / qblur=0.5 / ip_ratio=1.25 / pb_ratio=1.30 / aq=1:1.00
Язык : Russian
Default : Да
Forced : Нет
Цветовой диапазон : Limited
Основные цвета : BT.709
Характеристики трансфера : BT.709
Коэффициенты матрицы : BT.709

Аудио
Идентификатор : 2
Формат : AC-3
Формат/Информация : Audio Coding 3
Расширение режима : CM (complete main)
Параметр Endianness формата : Big
Идентификатор кодека : A_AC3
Продолжительность : 1 ч. 24 м.
Вид битрейта : Постоянный
Битрейт : 384 Кбит/сек
Каналы : 6 каналов
Расположение каналов : Front: L C R, Side: L R, LFE
Частота : 48,0 КГц
Частота кадров : 31,250 кадров/сек (1536 spf)
Битовая глубина : 16 бит
Метод сжатия : С потерями
Размер потока : 233 Мбайт (12%)
Язык : Russian
Default : Да
Forced : Нет
Аватара пользователя
Sanechek
Главный Модератор-Корсар
 
Месяцев на трекере: 3Месяцев на трекере: 3Месяцев на трекере: 3
 
Зарегистрирован: 10 ноя 2016, 12:29
В кошельке: 7,025.00
Банк: 580.00
Откуда: СССР
Флаги:
СССР-2

Награды: 2
За отличные раздачи (2)
  • Торрент
Автор: Sanechek Хэш: ---
Добавлен: 08 янв 2017, 19:40 Приватный: Нет (DHT включён)
Статус: Проверен
Размер: 1.83 ГБ (1 965 418 227 байт)
Изменил:
---
Скачали: 0 (Раздающих: 100%)
Причина:
---
Здоровье: 100%
Сидеров: 16 Личеров: 2
Скорость раздачи: 0 байт/сек Скорость скачивания: 0 байт/сек
Последний сидер: 3 дня 11 часов 58 минут 42 секунды назад Последний личер: 3 дня 11 часов 58 минут 42 секунды назад
Для скачивания торрента необходимо зарегистрироваться или войти на трекер.

Сообщение filbi1976 » 08 янв 2017, 19:46

Саша, спасибо! :hi:
Аватара пользователя
filbi1976
Главный-Корсар
 
Месяцев на трекере: 6Месяцев на трекере: 6Месяцев на трекере: 6Месяцев на трекере: 6Месяцев на трекере: 6Месяцев на трекере: 6
 
Зарегистрирован: 03 авг 2016, 15:59
В кошельке: 1,825.00
Банк: 745.00
Откуда: СССР
Флаги:
СССР-2

Награды: 6
За отличные раздачи (5) Верный Сид (1)

Сообщение kwazar312 » 08 янв 2017, 20:33

Прекрасная раздача.Большое спасибо.
Аватара пользователя
kwazar312
Уважаемый Корсар
 
Месяцев на трекере: 6Месяцев на трекере: 6Месяцев на трекере: 6Месяцев на трекере: 6Месяцев на трекере: 6Месяцев на трекере: 6
 
Зарегистрирован: 08 авг 2016, 09:50
В кошельке: 1,836.00

Награды: 2
За отличные комментарии (1) Верный Сид (1)


Вернуться в Христианство

Выключите ADBLOCK!
проверить сайт
cron