logo
Международный русскоязычный
торрент-трекер
Menu
Магазин-KorsaRDoublon
Поделиться с друзьями: 
Голосуй и получи дублоны
Рейтинг торрент трекеров - UpTracker.ru

Dierks Bentley - Black (2016, Country, FLAC)

Сообщение likko » 08 янв 2017, 14:22

Исполнитель: Dierks Bentley
Название: Black
Жанр: Country
Год издания: 2016
Аудиокодек: FLAC (lossless)
Продолжительность: 00:48:14

Треклист:
01. Black (3:31)
02. Pick Up (3:33)
03. I'll Be The Moon (3:31)
04. What The Hell Did I Say (3:27)
05. Somewhere On A Beach (3:17)
06. Freedom (3:36)
07. Why Do I Feel (3:58)
08. Roses And A Time Machine (3:38)
09. All The Way To Me (3:38)
10. Different For Girls (3:00)
11. Mardi Gras (3:49)
12. Light It Up (3:35)
13. Can't Be Replaced (5:41)
Код: Выделить всё
-----------------------

DON'T MODIFY THIS FILE

-----------------------

PERFORMER: auCDtect Task Manager, ver. 1.5.1RC6 build 1.5.1.7
Copyright (c) 2008-2010 y-soft. All rights reserved
[url=http://y-soft.org]http://y-soft.org[/url]

ANALYZER: auCDtect: CD records authenticity detector, version 0.8.2
Copyright (c) 2004 Oleg Berngardt. All rights reserved.
Copyright (c) 2004 Alexander Djourik. All rights reserved.

FILE: 01 - Black.flac
  Size: 23421574 Hash: DF5DC671A82EF82A1762CDCA832EEB0F Accuracy: -m8
  Conclusion: CDDA 100%
  Signature: 7A76B13014C8F30EBB0C7D6E9CB26C15EB9A090A
FILE: 02 - Pick Up.flac
  Size: 24641120 Hash: EFCA957FE48B13689065A8C9E0A54811 Accuracy: -m8
  Conclusion: CDDA 100%
  Signature: 27E958947EAF4BFA66F654C6FDDF4BD9E323F267
FILE: 03 - I'll Be The Moon.flac
  Size: 22455954 Hash: 2AF9D16169D7100768C6EB640DBA9F09 Accuracy: -m8
  Conclusion: CDDA 100%
  Signature: 455BF57139BF2DCE14F2677F31428EAC65393669
FILE: 04 - What The Hell Did I Say.flac
  Size: 25841336 Hash: 21270C7E94D0609324FD2A327337A686 Accuracy: -m8
  Conclusion: CDDA 100%
  Signature: FBFB9ECA986330F9F7DCD504C89DD15E5BCDAF4A
FILE: 05 - Somewhere On A Beach.flac
  Size: 23260981 Hash: EF3742C32CFEC03CA7CC093E512AD826 Accuracy: -m8
  Conclusion: CDDA 100%
  Signature: 9E6BD8CFE2D75CE95ADB45C32AD1B37847BB0542
FILE: 06 - Freedom.flac
  Size: 26941564 Hash: 6F6F4FA847D63CAFCEF80FAB4CFB1A5A Accuracy: -m8
  Conclusion: CDDA 100%
  Signature: 907EB3E154D70102535C672BC03A5955ABEA1B0C
FILE: 07 - Why Do I Feel.flac
  Size: 24194079 Hash: 9DF6BF7AFC141BB240E0978C2E5E3430 Accuracy: -m8
  Conclusion: CDDA 100%
  Signature: 181F603FF187CC123235ED85B76F58145D75F26B
FILE: 08 - Roses And A Time Machine.flac
  Size: 26590460 Hash: 88E03BC8DF4001C22139C9247ABC5171 Accuracy: -m8
  Conclusion: CDDA 99%
  Signature: 7A3498C1BD559B65AB61650F687B365892AD790A
FILE: 09 - All The Way To Me.flac
  Size: 25225123 Hash: 3557DF3B1E9FDA4CD159C781BB3F6E75 Accuracy: -m8
  Conclusion: CDDA 100%
  Signature: 1C26BB134DA536CC2009A7E5ED9270C18A29EB3E
FILE: 10 - Different For Girls.flac
  Size: 20649019 Hash: D8746558D15DCB0C4DD6D200A0D739E2 Accuracy: -m8
  Conclusion: CDDA 100%
  Signature: 2B71E5BB3030AAFC40BBCF6AAB0D721E336C8D42
FILE: 11 - Mardi Gras.flac
  Size: 28965238 Hash: A5540CD7C7C995709779BB31A5FE5E7F Accuracy: -m8
  Conclusion: CDDA 100%
  Signature: 32EF3556565B87BB529B915DB9AB64F2FDBED679
FILE: 12 - Light It Up.flac
  Size: 26183761 Hash: 0B4DF985ADBB2C1C97DAC781A5A78C9B Accuracy: -m8
  Conclusion: CDDA 100%
  Signature: C58D73EEDDE081FB2FF4F0B595B5B479B5E2CCDF
FILE: 13 - Can't Be Replaced.flac
  Size: 35438607 Hash: 5BCB92C0C13E2BBC2C87B758B9C3CF18 Accuracy: -m8
  Conclusion: CDDA 100%
  Signature: 90F32C00F523F4075D0953C00D23F519FECFA7FB
Код: Выделить всё
foobar2000 1.3.8 / Dynamic Range Meter 1.1.1
log date: 2016-05-27 06:55:54

--------------------------------------------------------------------------------
Analyzed: Dierks Bentley / Black
--------------------------------------------------------------------------------

DR         Peak         RMS     Duration Track
--------------------------------------------------------------------------------
DR5        0.00 dB    -7.67 dB      3:31 01-Black
DR6        0.00 dB    -7.98 dB      3:33 02-Pick Up
DR7        0.00 dB    -9.02 dB      3:31 03-I'll Be The Moon
DR5        0.00 dB    -6.14 dB      3:27 04-What The Hell Did I Say
DR6        0.00 dB    -7.73 dB      3:17 05-Somewhere On A Beach
DR6        0.00 dB    -7.17 dB      3:36 06-Freedom
DR7        0.00 dB    -8.51 dB      3:58 07-Why Do I Feel
DR6        0.00 dB    -7.40 dB      3:38 08-Roses And A Time Machine
DR6        0.00 dB    -7.47 dB      3:38 09-All The Way To Me
DR5        0.00 dB    -6.70 dB      3:00 10-Different For Girls
DR6        0.00 dB    -8.19 dB      3:49 11-Mardi Gras
DR6        0.00 dB    -6.95 dB      3:35 12-Light It Up
DR8       -0.05 dB   -10.14 dB      5:41 13-Can't Be Replaced
--------------------------------------------------------------------------------

Number of tracks:  13
Official DR value: DR6

Samplerate:        44100 Hz
Channels:          2
Bits per sample:   16
Bitrate:           831 kbps
Codec:             FLAC
================================================================================
http://www.dierks.com/
Аватара пользователя
likko
Уважаемый Релизёр-Корсар
 
 

Награды: 4
Лучший по количеству кубков (4)
  • Торрент
Для скачивания торрента необходимо зарегистрироваться или войти на трекер.

Вернуться в Зарубежное New Country (Lossless)



мониторинг сайтов