logo
Международный русскоязычный
торрент-трекер

Магазин-KorsaRDoublon

Поделиться с друзьями: 
Голосуй и получи дублоны
Рейтинг торрент трекеров - UpTracker.ru

Ветер крепчает / Kaze tachinu (2013, аниме, мультфильм, драма, биография, BDRip 720p)

Только для раздач видео разрешением 1280х*** и более

Сообщение Korsar » 06 янв 2017, 19:42

#777

Информация о фильме
Название: Ветер крепчает
Оригинальное название: Kaze tachinu
Год выхода: 2013
Жанр: аниме, мультфильм, драма, биография
Режиссер: Хаяо Миядзаки
В ролях: Хидеаки Анно, Хидэтоси Нисидзима, Миори Такимото, Масахико Нисимура, Мансай Номура, Морио Кадзама, Дзюн Кунимура, Мираи Сида, Кейко Такэсита, Синобу Отакэ

О фильме: Мальчик Дзиро мечтает о полетах и красивых самолетах, способных обогнать ветер. Вот только пилотом ему не стать — он с рождения близорук. Но Дзиро не расстается с мечтой о небе, он начинает придумывать идеальный самолет и со временем становится одним из лучших авиаконструкторов мира. На пути к успеху он не только встретит много интересных людей, переживет Великое землетрясение в Токио и жестокие войны, но и обретет любовь своей жизни — прекрасную Наоко.



Выпущено: Studio Ghibli
Продолжительность: 02:06:31
Перевод: Дублированный (лицензия)

Файл
Кодек: x264
Качество: BDRip (источник: Blu-ray Disc)
Видео: 1280x690 (1,85:1), 23.976 fps, 2980 kbps
Аудио #1: AC-3, 1 ch, 192 kbps (Rus)
Аудио #2: AC-3, 1 ch, 192 kbps (Jpn)
Субтитры: Русские
Скачать: сэмпл

Скриншоты

Общее
Уникальный идентификатор : 241653724652933441199741291976936211244 (0xB5CCD07FAD062B40AE3242DD657D432C)
Полное имя : Kaze.Tachinu.2013.BDRip.720p.Rus.Jpn.mkv
Формат : Matroska
Версия формата : Version 2
Размер файла : 2,98 Гбайт
Продолжительность : 2 ч. 6 м.
Общий поток : 3367 Кбит/сек
Название фильма : Ветер крепчает / Kaze tachinu (2013)
Дата кодирования : UTC 2014-06-23 16:49:51
Программа кодирования : mkvmerge v5.8.0 ('No Sleep / Pillow') built on Sep 2 2012 15:37:04
Библиотека кодирования : libebml v1.2.3 + libmatroska v1.3.0

Видео
Идентификатор : 1
Формат : AVC
Формат/Информация : Advanced Video Codec
Профиль формата : High@L4.1
Параметр CABAC формата : Да
Параметр ReFrames формата : 9 кадров
Идентификатор кодека : V_MPEG4/ISO/AVC
Продолжительность : 2 ч. 6 м.
Битрейт : 2981 Кбит/сек
Ширина : 1280 пикселей
Высота : 690 пикселей
Соотношение сторон : 1,85:1
Режим частоты кадров : Постоянный
Частота кадров : 23,976 кадра/сек
Цветовое пространство : YUV
Субдискретизация насыщенности : 4:2:0
Битовая глубина : 8 бит
Тип развёртки : Прогрессивная
Бит/(Пиксели*Кадры) : 0.141
Размер потока : 2,58 Гбайт (87%)
Заголовок : Release by AlexKa
Библиотека кодирования : x264 core 142 r2431 ac76440
Настройки программы : cabac=1 / ref=9 / deblock=1:0:0 / analyse=0x3:0x133 / me=umh / subme=11 / psy=1 / psy_rd=1.00:0.00 / mixed_ref=1 / me_range=32 / chroma_me=1 / trellis=2 / 8x8dct=1 / cqm=0 / deadzone=21,11 / fast_pskip=0 / chroma_qp_offset=-2 / threads=12 / lookahead_threads=2 / sliced_threads=0 / nr=0 / decimate=1 / interlaced=0 / bluray_compat=0 / constrained_intra=0 / bframes=9 / b_pyramid=2 / b_adapt=2 / b_bias=0 / direct=3 / weightb=1 / open_gop=0 / weightp=2 / keyint=240 / keyint_min=23 / scenecut=40 / intra_refresh=0 / rc=2pass / mbtree=0 / bitrate=2981 / ratetol=1.0 / qcomp=0.60 / qpmin=0 / qpmax=69 / qpstep=4 / cplxblur=20.0 / qblur=0.5 / ip_ratio=1.40 / pb_ratio=1.30 / aq=1:1.00
Язык : Japanese

Аудио #1
Идентификатор : 2
Формат : AC-3
Формат/Информация : Audio Coding 3
Расширение режима : CM (complete main)
Параметр Endianness формата : Big
Идентификатор кодека : A_AC3
Продолжительность : 2 ч. 6 м.
Вид битрейта : Постоянный
Битрейт : 192 Кбит/сек
Каналы : 1 канал
Расположение каналов : Front: C
Частота : 48,0 КГц
Битовая глубина : 16 бит
Метод сжатия : С потерями
Размер потока : 174 Мбайт (6%)
Заголовок : Rus
Язык : Russian

Аудио #2
Идентификатор : 3
Формат : AC-3
Формат/Информация : Audio Coding 3
Расширение режима : CM (complete main)
Параметр Endianness формата : Big
Идентификатор кодека : A_AC3
Продолжительность : 2 ч. 6 м.
Вид битрейта : Постоянный
Битрейт : 192 Кбит/сек
Каналы : 1 канал
Расположение каналов : Front: C
Частота : 48,0 КГц
Битовая глубина : 16 бит
Метод сжатия : С потерями
Размер потока : 174 Мбайт (6%)
Заголовок : Jpn
Язык : Japanese

Текст
Идентификатор : 4
Формат : UTF-8
Идентификатор кодека : S_TEXT/UTF8
Идентификатор кодека/Информация : UTF-8 Plain Text
Заголовок : Rus
Язык : Russian

Меню
00:00:00.000 : :Chapter 01
00:07:09.220 : :Chapter 02
00:12:52.688 : :Chapter 03
00:21:53.979 : :Chapter 04
00:30:06.471 : :Chapter 05
00:37:49.433 : :Chapter 06
00:44:57.528 : :Chapter 07
00:52:59.634 : :Chapter 08
01:00:33.755 : :Chapter 09
01:08:06.290 : :Chapter 10
01:17:12.919 : :Chapter 11
01:28:44.026 : :Chapter 12
01:35:20.548 : :Chapter 13
01:46:39.059 : :Chapter 14
01:52:45.883 : :Chapter 15
02:02:56.744 : :Chapter 16
02:06:30.165 : :Chapter 17
x264 [info]: frame I:1412 Avg QP:14.09 size:145692
x264 [info]: frame P:41797 Avg QP:16.57 size: 34959
x264 [info]: frame B:138796 Avg QP:19.21 size: 8369
x264 [info]: consecutive B-frames: 3.1% 3.3% 10.1% 19.4% 17.5% 31.0% 10.8% 2.7% 1.4% 0.7%

Автор рипа: AlexKa
Аватара пользователя
Korsar
Помощник Администратора-Корсар
 
Месяцев на трекере: 7Месяцев на трекере: 7Месяцев на трекере: 7Месяцев на трекере: 7Месяцев на трекере: 7Месяцев на трекере: 7Месяцев на трекере: 7
 
Зарегистрирован: 15 авг 2016, 17:15
В кошельке: 53,787.00
Банк: 0.00
Откуда: CCCР
Флаги:
СССР

Награды: 2
За отличные раздачи (1) Верный Сид (1)
  • Торрент
Автор: Korsar Хэш: ---
Добавлен: 06 янв 2017, 19:42 Приватный: Нет (DHT включён)
Статус: Проверен
Размер: 2.98 ГБ (3 194 747 192 байт)
Изменил: Korsar (06 янв 2017, 19:43)
Скачали: 0 (Раздающих: 100%)
Причина:
---
Здоровье: 100%
Сидеров: 2 Личеров: 0
Скорость раздачи: 0 байт/сек Скорость скачивания: 0 байт/сек
Последний сидер: 2 месяца 9 дней 13 минут 20 секунд назад Последний личер: 2 месяца 21 день 20 часов 41 минуту 33 секунды назад
Для скачивания торрента необходимо зарегистрироваться или войти на трекер.

Вернуться в Аниме (HD Video)

На Korsar.tv нет рекламы, для доступа ко всем возможностям отключите блокировщики рекламы!!!
проверить сайт