logo
Международный русскоязычный
торрент-трекер

Магазин-KorsaRDoublon

Поделиться с друзьями: 
Голосуй и получи дублоны
Рейтинг торрент трекеров - UpTracker.ru

Diamanda Galas with John Paul Jones - The Sporting Life - (1994, Rock, Blues, Avant-Garde) FLAC, lossless

Сообщение Korsar » 06 янв 2017, 00:07

Diamanda Galas with John Paul Jones - The Sporting Life

Жанр: Rock, Blues, Avantgarde
Носитель: CD
Страна-производитель диска (релиза): Россия
Год издания: 1994
Издатель (лейбл): Parihon music
Страна исполнителя (группы): UK
Аудиокодек: FLAC (*.flac)
Тип рипа: image+.cue
Битрейт аудио: lossless
Продолжительность: 01:02:37
Источник (релизер): собственный рип
Наличие сканов в содержимом раздачи: да

Треклист:
01 - Skotoseme
02 - Do You Take This Man?
03 - Dark End Of The Street
04 - You're Mine
05 - Tony
06 - Devil's Rodeo
07 - The Sporting Life
08 - Baby's Insane
09 - Last Man Down
10 - Hex
11 - Hex (La Diabla Mix)
Код: Выделить всё
Exact Audio Copy V0.99 prebeta 4 from 23. January 2008

EAC extraction logfile from 6. June 2015, 0:30

Diamanda Galas with John Paul Jones / The Sporting Life

Used drive  : GIGABYTEGO-D1600C   Adapter: 3  ID: 0

Read mode               : Secure
Utilize accurate stream : Yes
Defeat audio cache      : Yes
Make use of C2 pointers : No

Read offset correction                      : 12
Overread into Lead-In and Lead-Out          : No
Fill up missing offset samples with silence : Yes
Delete leading and trailing silent blocks   : No
Null samples used in CRC calculations       : Yes
Used interface                              : Native Win32 interface for Win NT & 2000

Used output format : Internal WAV Routines
Sample format      : 44.100 Hz; 16 Bit; Stereo

TOC of the extracted CD

     Track |   Start  |  Length  | Start sector | End sector
    ---------------------------------------------------------
        1  |  0:00.00 |  6:27.33 |         0    |    29057
        2  |  6:27.33 |  6:08.56 |     29058    |    56713
        3  | 12:36.14 |  2:43.02 |     56714    |    68940
        4  | 15:19.16 |  5:06.27 |     68941    |    91917
        5  | 20:25.43 |  5:33.29 |     91918    |   116921
        6  | 25:58.72 |  5:34.64 |    116922    |   142035
        7  | 31:33.61 |  5:43.41 |    142036    |   167801
        8  | 37:17.27 |  4:37.72 |    167802    |   188648
        9  | 41:55.24 |  4:49.53 |    188649    |   210376
       10  | 46:45.02 |  8:04.35 |    210377    |   246711
       11  | 54:49.37 |  7:48.08 |    246712    |   281819

Range status and errors

Selected range

     Filename D:\Temp\Diamanda Galas with John Paul Jones - The Sporting Life - 1994\Diamanda Galas with John Paul Jones - The Sporting Life.wav

     Peak level 100.0 %
     Range quality 100.0 %
     Test CRC ED7585C2
     Copy CRC ED7585C2
     Copy OK

No errors occurred

AccurateRip summary

Track  1  accurately ripped (confidence 3)  [FE06FE3F]
Track  2  accurately ripped (confidence 3)  [5CD11E66]
Track  3  accurately ripped (confidence 3)  [8BEB653F]
Track  4  accurately ripped (confidence 3)  [A5DC8AA1]
Track  5  accurately ripped (confidence 3)  [A973A8C2]
Track  6  accurately ripped (confidence 3)  [79AE1806]
Track  7  accurately ripped (confidence 3)  [8CBD1775]
Track  8  accurately ripped (confidence 3)  [83DF16A0]
Track  9  accurately ripped (confidence 3)  [53AECD19]
Track 10  accurately ripped (confidence 3)  [015E28F1]
Track 11  accurately ripped (confidence 3)  [94A3E057]

All tracks accurately ripped

End of status report
Аватара пользователя
Korsar
Помощник Администратора-Корсар
 
Месяцев на трекере: 7Месяцев на трекере: 7Месяцев на трекере: 7Месяцев на трекере: 7Месяцев на трекере: 7Месяцев на трекере: 7Месяцев на трекере: 7
 
Зарегистрирован: 15 авг 2016, 17:15
В кошельке: 53,787.00
Банк: 0.00
Откуда: CCCР
Флаги:
СССР

Награды: 2
За отличные раздачи (1) Верный Сид (1)
  • Торрент
Автор: Korsar Хэш: ---
Добавлен: 06 янв 2017, 00:07 Приватный: Нет (DHT включён)
Статус: Проверен
Размер: 546.27 МБ (572 804 699 байт)
Изменил: Korsar (06 янв 2017, 00:11)
Скачали: 0 (Раздающих: 0%)
Причина:
---
Здоровье: 0%
Сидеров: 0 Личеров: 0
Скорость раздачи: 0 байт/сек Скорость скачивания: 0 байт/сек
Последний сидер: Нет Последний личер: Нет
Для скачивания торрента необходимо зарегистрироваться или войти на трекер.

Вернуться в Зарубежный джаз (Lossless)

На Korsar.tv нет рекламы, для доступа ко всем возможностям отключите блокировщики рекламы!!!
проверить сайт